Новости трекера
Апр Новый Адрес: RUTOR.EMPIREG.RU
Ноя Вечная блокировка в России
Окт Путеводитель по RUTOR: Правила, Руководства, Секреты


Скачать Чёрная Пантера: Ваканда навеки / Black Panther: Wakanda Forever (2022) UHD BDRemux 2160p от Theseus | 4K | HDR | Dolby Vision Profile 8 | D, P торрентом бесплатно

Чёрная Пантера: Ваканда навеки / Black Panther: Wakanda Forever (2022) UHD BDRemux 2160p от Theseus | 4K | HDR | Dolby Vision  Profile 8 | D, P

0

⇒ Основная информация:
Информация о фильме
Название: Чёрная Пантера: Ваканда навеки
Оригинальное название: Black Panther: Wakanda Forever
Год выхода: 2022
Жанр: фантастика, боевик, драма

Режиссер: Райан Куглер

В ролях: Летишиа Райт, Лупита Нионго, Данай Гурира, Уинстон Дьюк, Анджела Бассетт, Теноч Уэрта, Мартин Фриман, Доминик Торн, Флоренс Касумба, Михаэла Коэл

О фильме:
После смерти короля Т`Чаллы королева Рамонда, Шури, М`Баку, Окойе и Дора Милаж сражаются, чтобы защитить Ваканду от мировых держав..





Страна: США
Студия: Marvel Studios Inc., Walt Disney Pictures
Продолжительность: 02:41:18
Перевод(ы):
#1: Дублированный | онлайн кино
#2: Профессиональный (многоголосый закадровый) | HDrezka Studio
#3: Профессиональный (многоголосый закадровый) | Jaskier

Файл
Кодек: H.265
Качество: BDRemux 2160p
Видео: HEVC, HDR10, Dolby Vision Profile 8, 3840x2160 (16:9), 23.976 fps, 41,7 Mb/s, 10 bit
Аудио 1: AC3, 48.0 kHz, 2 ch, 192 kb/s | RUS (DUB, онлайн кино)
Аудио 2: AC3, 48.0 kHz, 6 ch, 448 kb/s | RUS (MVO, HDrezka Studio)
Аудио 3: AC3, 48.0 kHz, 6 ch, 384 kb/s | RUS (MVO, Jaskier)
Аудио 4: E-AC3, 48.0 kHz, 6 ch, 256 kb/s | UKR (DUB, LeDoyen)
Аудио 5: Dolby TrueHD, 48.0 kHz, 8 ch, 4 689 kb/s | ENG
Аудио 6: AC3, 48.0 kHz, 6 ch, 640 kb/s | ENG
Аудио 7: AC3, 48.0 kHz, 2 ch, 192 kb/s | ENG | Commentary
Субтитры: Русские (forced, full), украинские (forced, full), английские (forced - вшитые на речь, forced, full, SDH)

Трейлер

Релиз

⇒ MI
Общее
Уникальный идентификатор : 73042015961247554641846589381801561414 (0x36F3616D4924C6DB8537906F938A4D46)
Полное имя : Black.Panther.Wakanda.Forever.(2022).BDRemux.2160p.Theseus.mkv
Формат : Matroska
Версия формата : Version 4
Размер файла : 54,7 Гбайт
Продолжительность : 2 ч. 41 м.
Режим общего битрейта : Переменный
Общий поток : 48,6 Мбит/сек
Название фильма : Black Panther: Wakanda Forever (2022) Theseus
Дата кодирования : UTC 2023-02-04 12:36:20
Программа кодирования : mkvmerge v72.0.0 ('Minuano (Six-eight)') 64-bit
Библиотека кодирования : libebml v1.4.4 + libmatroska v1.7.1

Видео
Идентификатор : 1
Формат : HEVC
Формат/Информация : High Efficiency Video Coding
Профиль формата : Main 10@L5.1@High
HDR format : Dolby Vision, Version 1.0, dvhe.08.06, BL+RPU, HDR10 compatible / SMPTE ST 2086, HDR10 compatible
Идентификатор кодека : V_MPEGH/ISO/HEVC
Продолжительность : 2 ч. 41 м.
Битрейт : 41,7 Мбит/сек
Ширина : 3 840 пикселей
Высота : 2 160 пикселей
Соотношение сторон : 16:9
Режим частоты кадров : Постоянный
Частота кадров : 23,976 (24000/1001) кадра/сек
Цветовое пространство : YUV
Субдискретизация насыщенности : 4:2:0 (Type 2)
Битовая глубина : 10 бит
Бит/(Пиксели*Кадры) : 0.210
Размер потока : 47,0 Гбайт (86%)
Заголовок : Black.Panther.Wakanda.Forever.2022.Hybrid.REPACK.2160p.UHD.Remux.DoVi.HDR.HEVC.TrueHD.Atmos.7.1-playBD
Библиотека кодирования : ATEME Titan File 3.9.6 (4.9.6.2)
Язык : English
Default : Да
Forced : Нет
Цветовой диапазон : Limited
Основные цвета : BT.2020
Характеристики трансфера : PQ
Коэффициенты матрицы : BT.2020 non-constant
Mastering display color primaries : BT.2020
Mastering display luminance : min: 0.0050 cd/m2, max: 1000 cd/m2

Аудио #1
Идентификатор : 2
Формат : AC-3
Формат/Информация : Audio Coding 3
Коммерческое название : Dolby Digital
Идентификатор кодека : A_AC3
Продолжительность : 2 ч. 41 м.
Вид битрейта : Постоянный
Битрейт : 192 Кбит/сек
Каналы : 2 канала
Channel layout : L R
Частота : 48,0 КГц
Частота кадров : 31,250 кадров/сек (1536 SPF)
Метод сжатия : С потерями
Размер потока : 222 Мбайт (0%)
Заголовок : DUB (Megogo)
Язык : Russian
Service kind : Complete Main
Default : Да
Forced : Нет

Аудио #2
Идентификатор : 3
Формат : AC-3
Формат/Информация : Audio Coding 3
Коммерческое название : Dolby Digital
Идентификатор кодека : A_AC3
Продолжительность : 2 ч. 41 м.
Вид битрейта : Постоянный
Битрейт : 448 Кбит/сек
Каналы : 6 каналов
Channel layout : L R C LFE Ls Rs
Частота : 48,0 КГц
Частота кадров : 31,250 кадров/сек (1536 SPF)
Метод сжатия : С потерями
Размер потока : 517 Мбайт (1%)
Заголовок : MVO (HDrezka Studio)
Язык : Russian
Service kind : Complete Main
Default : Нет
Forced : Нет

Аудио #3
Идентификатор : 4
Формат : AC-3
Формат/Информация : Audio Coding 3
Коммерческое название : Dolby Digital
Идентификатор кодека : A_AC3
Продолжительность : 2 ч. 41 м.
Вид битрейта : Постоянный
Битрейт : 384 Кбит/сек
Каналы : 6 каналов
Channel layout : L R C LFE Ls Rs
Частота : 48,0 КГц
Частота кадров : 31,250 кадров/сек (1536 SPF)
Битовая глубина : 16 бит
Метод сжатия : С потерями
Размер потока : 443 Мбайт (1%)
Заголовок : MVO (Jaskier)
Язык : Russian
Service kind : Complete Main
Default : Нет
Forced : Нет

Аудио #4
Идентификатор : 5
Формат : E-AC-3
Формат/Информация : Enhanced AC-3
Коммерческое название : Dolby Digital Plus
Идентификатор кодека : A_EAC3
Продолжительность : 2 ч. 41 м.
Вид битрейта : Постоянный
Битрейт : 256 Кбит/сек
Каналы : 6 каналов
Channel layout : L R C LFE Ls Rs
Частота : 48,0 КГц
Частота кадров : 31,250 кадров/сек (1536 SPF)
Метод сжатия : С потерями
Размер потока : 295 Мбайт (1%)
Заголовок : DUB (LeDoyen)
Язык : Ukrainian
Service kind : Complete Main
Default : Нет
Forced : Нет

Аудио #5
Идентификатор : 6
Формат : MLP FBA 16-ch
Формат/Информация : Meridian Lossless Packing FBA with 16-channel presentation
Коммерческое название : Dolby TrueHD with Dolby Atmos
Идентификатор кодека : A_TRUEHD
Продолжительность : 2 ч. 41 м.
Вид битрейта : Переменный
Битрейт : 4 689 Кбит/сек
Максимальный битрейт : 7 758 Кбит/сек
Каналы : 8 каналов
Channel layout : L R C LFE Ls Rs Lb Rb
Частота : 48,0 КГц
Частота кадров : 1 200,000 кадров/сек (40 SPF)
Метод сжатия : Без потерь
Размер потока : 5,28 Гбайт (10%)
Заголовок : Original
Язык : English
Default : Нет
Forced : Нет
Number of dynamic objects : 13
Bed channel count : 1 канал
Bed channel configuration : LFE

Аудио #6
Идентификатор : 7
Формат : AC-3
Формат/Информация : Audio Coding 3
Коммерческое название : Dolby Digital
Идентификатор кодека : A_AC3
Продолжительность : 2 ч. 41 м.
Вид битрейта : Постоянный
Битрейт : 640 Кбит/сек
Каналы : 6 каналов
Channel layout : L R C LFE Ls Rs
Частота : 48,0 КГц
Частота кадров : 31,250 кадров/сек (1536 SPF)
Метод сжатия : С потерями
Размер потока : 738 Мбайт (1%)
Заголовок : Original
Язык : English
Service kind : Complete Main
Default : Нет
Forced : Нет

Аудио #7
Идентификатор : 8
Формат : AC-3
Формат/Информация : Audio Coding 3
Коммерческое название : Dolby Digital
Идентификатор кодека : A_AC3
Продолжительность : 2 ч. 41 м.
Вид битрейта : Постоянный
Битрейт : 192 Кбит/сек
Каналы : 2 канала
Channel layout : L R
Частота : 48,0 КГц
Частота кадров : 31,250 кадров/сек (1536 SPF)
Метод сжатия : С потерями
Размер потока : 222 Мбайт (0%)
Заголовок : Commentary by Director Ryan Coogler, Writer Joe Cole, & Director of Photography Autumn Arkapaw
Язык : English
Service kind : Complete Main
Default : Нет
Forced : Нет

Текст #1
Идентификатор : 9
Формат : UTF-8
Идентификатор кодека : S_TEXT/UTF8
Идентификатор кодека/Информация : UTF-8 Plain Text
Продолжительность : 2 ч. 31 м.
Битрейт : 7 бит/сек
Count of elements : 211
Размер потока : 8,03 Кбайт (0%)
Заголовок : Forced
Язык : Russian
Default : Да
Forced : Нет

Текст #2
Идентификатор : 10
Формат : UTF-8
Идентификатор кодека : S_TEXT/UTF8
Идентификатор кодека/Информация : UTF-8 Plain Text
Продолжительность : 2 ч. 33 м.
Битрейт : 80 бит/сек
Count of elements : 1895
Размер потока : 90,9 Кбайт (0%)
Заголовок : Full (Cool Story Blog)
Язык : Russian
Default : Нет
Forced : Нет

Текст #3
Идентификатор : 11
Формат : UTF-8
Идентификатор кодека : S_TEXT/UTF8
Идентификатор кодека/Информация : UTF-8 Plain Text
Продолжительность : 2 ч. 39 м.
Битрейт : 6 бит/сек
Count of elements : 218
Размер потока : 7,65 Кбайт (0%)
Заголовок : Forced
Язык : Ukrainian
Default : Нет
Forced : Нет

Текст #4
Идентификатор : 12
Формат : UTF-8
Идентификатор кодека : S_TEXT/UTF8
Идентификатор кодека/Информация : UTF-8 Plain Text
Продолжительность : 2 ч. 41 м.
Битрейт : 67 бит/сек
Count of elements : 1777
Размер потока : 79,4 Кбайт (0%)
Заголовок : Full
Язык : Ukrainian
Default : Нет
Forced : Нет

Текст #5
Идентификатор : 13
Формат : UTF-8
Идентификатор кодека : S_TEXT/UTF8
Идентификатор кодека/Информация : UTF-8 Plain Text
Продолжительность : 2 ч. 31 м.
Битрейт : 3 бит/сек
Count of elements : 200
Размер потока : 4,12 Кбайт (0%)
Заголовок : Forced
Язык : English
Default : Нет
Forced : Нет

Текст #6
Идентификатор : 14
Формат : UTF-8
Идентификатор кодека : S_TEXT/UTF8
Идентификатор кодека/Информация : UTF-8 Plain Text
Продолжительность : 2 ч. 37 м.
Битрейт : 46 бит/сек
Count of elements : 2038
Размер потока : 53,6 Кбайт (0%)
Заголовок : Full
Язык : English
Default : Нет
Forced : Нет

Текст #7
Идентификатор : 15
Формат : UTF-8
Идентификатор кодека : S_TEXT/UTF8
Идентификатор кодека/Информация : UTF-8 Plain Text
Продолжительность : 2 ч. 38 м.
Битрейт : 58 бит/сек
Count of elements : 2550
Размер потока : 68,1 Кбайт (0%)
Заголовок : SDH
Язык : English
Default : Нет
Forced : Нет

Меню
00:00:00.000 : en:Chapter 1
00:06:23.717 : en:Chapter 2
00:11:47.582 : en:Chapter 3
00:18:45.916 : en:Chapter 4
00:23:16.687 : en:Chapter 5
00:29:52.416 : en:Chapter 6
00:33:12.949 : en:Chapter 7
00:35:17.741 : en:Chapter 8
00:39:54.183 : en:Chapter 9
00:46:41.716 : en:Chapter 10
00:53:11.021 : en:Chapter 11
00:58:20.997 : en:Chapter 12
01:02:33.166 : en:Chapter 13
01:04:52.388 : en:Chapter 14
01:12:35.434 : en:Chapter 15
01:21:47.194 : en:Chapter 16
01:28:29.346 : en:Chapter 17
01:40:24.018 : en:Chapter 18
01:44:45.196 : en:Chapter 19
01:53:09.408 : en:Chapter 20
01:58:03.576 : en:Chapter 21
02:04:36.177 : en:Chapter 22
02:10:13.681 : en:Chapter 23
02:19:33.448 : en:Chapter 24
02:24:00.882 : en:Chapter 25
02:31:27.662 : en:Chapter 26
02:33:54.308 : en:Chapter 27
⇒ Скриншоты
Уважаемые пользователи!
Не забывайте оставаться на раздаче после того, как скачали торрент! Помогите скачать и другим - поддержите свободный обмен!

Если у вас НЕ получается скачать торрент файл, то используйте VPN или качайте через "Magnet ссылку"!

VPN вы можете приобрести в нашем интернет-магазине!
Размер: -//-

Чёрная Пантера: Ваканда навеки / Black Panther: Wakanda Forever (2022) UHD BDRemux 2160p от Theseus | 4K | HDR | Dolby Vision  Profile 8 | D, P Torrent файл

Чёрная Пантера: Ваканда навеки / Black Panther: Wakanda Forever (2022) UHD BDRemux 2160p от Theseus | 4K | HDR | Dolby Vision  Profile 8 | D, P Magnet ссылка
Добавить комментарий

Оставить комментарий

Кликните на изображение чтобы обновить код, если он неразборчив
up
Copyright © 2022 RUTOR.EmpireG.RU. Все права защищены. Яндекс.Метрика