Новости трекера
Апр Новый Адрес: RUTOR.EMPIREG.RU
Ноя Вечная блокировка в России
Окт Путеводитель по RUTOR: Правила, Руководства, Секреты


Скачать Уровень 16 / Level 16 (2018) BDRip 1080p | P | GER Transfer торрентом бесплатно

Уровень 16 / Level 16 (2018) BDRip 1080p | P | GER Transfer

0

⇒ Основная информация:
Информация о фильме
Название: Уровень 16
Оригинальное название: Level 16
Год выпуска: 2018
Жанр: Фантастика, триллер, драма
Режиссер: Данишка Эстерхази
В ролях: Кэти Дуглас, Селина Мартин, Сара Каннинг, Питер Аутербридж, Алексис Уилан, Амалия Уильямсон, Джозетт Хэлперт, Киана Мадейра, Кейт Виккери, Алекс Стил, Сидни Мейер, Джоэль Фэрроу

О фильме:
Действие разворачивается в Академии Весталис — школе-интернате для девочек. Воспитанниц здесь содержат в аскетических условиях и в исключительной строгости, готовя их к последующей жизни в богатых и влиятельных семьях, а за малейшее неповиновение их жестоко наказывают. Вивьен, будущая выпускница Академии, не желая больше терпеть постоянные побои и унижение, начинает планировать побег из школы. Для этого она заручается поддержкой Софии, бывшей подруги, однажды предавшей ее. Вместе девушки смогут сделать то, о чем мечтают многие из воспитанниц, но при подготовке к бегству, они узнают шокирующую правду об Академии.



Страна: Канада
Студия: Markham Street Films
Продолжительность: 01:42:29
Перевод: Профессиональный (многоголосый, закадровый) | HDRezka Studio

Файл
Формат: Matroska
Качество: BDRip 1080p
Видео: MPEG-4 AVC, 1920x804, 23.976 fps, ~14.5 Mbps
Аудио 1: Russian: 48 kHz, AC3, 3/2 (L,C,R,l,r) + LFE ch, ~448 kbps
Аудио 2: English: 48 kHz, AC3, 3/2 (L,C,R,l,r) + LFE ch, ~640 kbps
Субтитры: Русские (Forced), английские

⇒ Скриншоты
⇒ Инфо-файл
Источник: Level.16.2018.1080p.BluRay.DD5.1.x264-LoRD

General
Unique ID : 199492169171831543968326539679604386607 (0x9614CB5284AFD71590281478C663AB2F)
Complete name : Level.16.2018.BDRip.1080p.mkv
Format : Matroska
Format version : Version 4 / Version 2
File size : 11.1 GiB
Duration : 1 h 42 min
Overall bit rate : 15.5 Mb/s
Encoded date : UTC 2022-04-03 10:14:30
Writing application : mkvmerge v7.3.0 ('Nouages') 64bit built on Oct 22 2014 18:53:34
Writing library : libebml v1.3.0 + libmatroska v1.4.1

Video
ID : 1
Format : AVC
Format/Info : Advanced Video Codec
Format profile : High@L4.1
Format settings, CABAC : Yes
Format settings, RefFrames : 5 frames
Codec ID : V_MPEG4/ISO/AVC
Duration : 1 h 42 min
Bit rate : 14.5 Mb/s
Width : 1 920 pixels
Height : 804 pixels
Display aspect ratio : 2.40:1
Frame rate mode : Constant
Frame rate : 23.976 (24000/1001) FPS
Color space : YUV
Chroma subsampling : 4:2:0
Bit depth : 8 bits
Scan type : Progressive
Bits/(Pixel*Frame) : 0.392
Stream size : 10.3 GiB (93%)
Writing library : x264 core 157 r2969 LoRD
Encoding settings : cabac=1 / ref=5 / deblock=1:-3:-3 / analyse=0x3:0x133 / me=umh / subme=10 / psy=1 / psy_rd=1.00:0.00 / mixed_ref=1 / me_range=32 / chroma_me=1 / trellis=2 / 8x8dct=1 / cqm=0 / deadzone=21,11 / fast_pskip=0 / chroma_qp_offset=-2 / threads=12 / lookahead_threads=2 / sliced_threads=0 / nr=0 / decimate=0 / interlaced=0 / bluray_compat=0 / constrained_intra=0 / bframes=8 / b_pyramid=2 / b_adapt=2 / b_bias=0 / direct=3 / weightb=1 / open_gop=0 / weightp=2 / keyint=250 / keyint_min=23 / scenecut=40 / intra_refresh=0 / rc_lookahead=60 / rc=2pass / mbtree=0 / bitrate=14500 / ratetol=1.0 / qcomp=0.60 / qpmin=0 / qpmax=69 / qpstep=4 / cplxblur=20.0 / qblur=0.5 / vbv_maxrate=50000 / vbv_bufsize=62500 / nal_hrd=none / filler=0 / ip_ratio=1.30 / pb_ratio=1.20 / aq=3:0.80
Language : English
Default : Yes
Forced : No

Audio #1
ID : 2
Format : AC-3
Format/Info : Audio Coding 3
Format settings, Endianness : Big
Codec ID : A_AC3
Duration : 1 h 42 min
Bit rate mode : Constant
Bit rate : 448 kb/s
Channel(s) : 6 channels
Channel positions : Front: L C R, Side: L R, LFE
Sampling rate : 48.0 kHz
Frame rate : 31.250 FPS (1536 SPF)
Bit depth : 16 bits
Compression mode : Lossy
Stream size : 327 MiB (3%)
Title : MVO (HDRezka Studio)
Language : Russian
Service kind : Complete Main
Default : Yes
Forced : No

Audio #2
ID : 3
Format : AC-3
Format/Info : Audio Coding 3
Format settings, Endianness : Big
Codec ID : A_AC3
Duration : 1 h 42 min
Bit rate mode : Constant
Bit rate : 640 kb/s
Channel(s) : 6 channels
Channel positions : Front: L C R, Side: L R, LFE
Sampling rate : 48.0 kHz
Frame rate : 31.250 FPS (1536 SPF)
Bit depth : 16 bits
Compression mode : Lossy
Stream size : 469 MiB (4%)
Title : Original
Language : English
Service kind : Complete Main
Default : No
Forced : No

Text #1
ID : 4
Format : UTF-8
Codec ID : S_TEXT/UTF8
Codec ID/Info : UTF-8 Plain Text
Duration : 33 min 56 s
Bit rate : 0 b/s
Count of elements : 6
Stream size : 233 Bytes (0%)
Title : Forced
Language : Russian
Default : Yes
Forced : No

Text #2
ID : 5
Format : UTF-8
Codec ID : S_TEXT/UTF8
Codec ID/Info : UTF-8 Plain Text
Duration : 1 h 36 min
Bit rate : 39 b/s
Count of elements : 1073
Stream size : 27.7 KiB (0%)
Title : Full
Language : English
Default : No
Forced : No

Text #3
ID : 6
Format : UTF-8
Codec ID : S_TEXT/UTF8
Codec ID/Info : UTF-8 Plain Text
Duration : 1 h 36 min
Bit rate : 45 b/s
Count of elements : 1289
Stream size : 31.9 KiB (0%)
Title : SDH
Language : English
Default : No
Forced : No

Menu
00:00:00.000 : en:Chapter 01
00:08:57.662 : en:Chapter 02
00:17:57.326 : en:Chapter 03
00:26:22.331 : en:Chapter 04
00:33:43.146 : en:Chapter 05
00:43:14.008 : en:Chapter 06
00:51:15.114 : en:Chapter 07
00:59:03.498 : en:Chapter 08
01:08:09.544 : en:Chapter 09
01:16:42.348 : en:Chapter 10
01:26:16.880 : en:Chapter 11
01:32:34.007 : en:Chapter 12
Уважаемые пользователи!
Не забывайте оставаться на раздаче после того, как скачали торрент! Помогите скачать и другим - поддержите свободный обмен!

Если у вас НЕ получается скачать торрент файл, то используйте VPN или качайте через "Magnet ссылку"!

VPN вы можете приобрести в нашем интернет-магазине!
Размер: -//-

Уровень 16 / Level 16 (2018) BDRip 1080p | P | GER Transfer Torrent файл

Уровень 16 / Level 16 (2018) BDRip 1080p | P | GER Transfer Magnet ссылка
Добавить комментарий

Оставить комментарий

Кликните на изображение чтобы обновить код, если он неразборчив
up
Copyright © 2022 RUTOR.EmpireG.RU. Все права защищены. Яндекс.Метрика