rutor.info :: Свободный торрент трекер » Наши сериалы » Против всех [01-06 из 13] (2022) WEBRip
  • Не нравится
  • 0
  • Нравится
Категория: Наши сериалы | Добавил: TOLIAXA | Просмотров: 5 | Комментариев: 0

Против всех [01-06 из 13] (2022) WEBRip


Уважаемые пользователи!
Не забывайте оставаться на раздаче после того, как скачали торрент! Помогите скачать и другим - поддержите свободный обмен!

Если у вас НЕ получается скачать торрент файл, то используйте VPN или качайте через "Magnet ссылку"!

VPN вы можете приобрести в нашем интернет-магазине!
Размер: -//-

Против всех [01-06 из 13] (2022) WEBRip Torrent файл
Против всех [01-06 из 13] (2022) WEBRip Magnet ссылка

Против всех [01-06 из 13] (2022) WEBRip
⇒ Основная информация:
Оригинальное название: Против всех
Год выпуска: 2022
Жанр: Комедия
Выпущено: Россия, СТС, Старт Студио
Режиссёр: Михаил Соловьев
В ролях: Николай Добрынин, Александра Урсуляк, Сергей Лавыгин, Сергей Степин, Василина Юсковец, Тимофей Елецкий, Владимир Стержаков, Александра Ребенок, Надежда Маркина, Ева Смирнова, Святослав Рогожан, Анастасия Имамова, Сергей Цепов, Сергей Беляев, Артур Ваха, Дмитрий Калихов, Ульяна Перетолчина, Анастасия Морозовская, Светлана Нестерова, Маргарита Голубева, Даниил Колесов, Валерий Борисов, Юлия Храмцова, Елена Соловьёва, Софья Реснянская, Леон Автаев, Мария Герасимова, Елена Сортова

Описание: Дед Захар — единственный, кто отказался продавать земельный участок в угоду постройке нового ЖК. Старый лес вырубили, пруд осушили, еще и внук Богдан влюбился в дочку застройщика Майю. Но упрямый Захар решил идти до конца. Даже если придется вступить в неравную борьбу с застройщиком и недовольными жильцами построенной многоэтажки.



Качество: WEBRip - 25Kuzmich
Формат: AVI
Видео: 720x400 (1.80:1), 25 fps, XviD ~1650 kbps avg, 0.229 bit/pixel
Аудио: AC3, 2 ch, 192 kbps, 16 bits, 48.0 KHz
Продолжительность: ~00:25:00 серия
Субтитры: нет
Семпл

Внимание! Раздача ведётся путём добавления новых серий
Раздача ведётся путём добавления новых серий, при каждом добавлении создаётся новый торрент. Чтобы начать докачку новой серии, пользователям необходимо сделать следующее:

- Остановить скачивание.
- Удалить старый торрент у себя из клиента (старые серии удалять не надо).
- Скачать новый торрент и запустить его у себя в клиенте вместо старого, при этом указать клиенту путь в старую папку куда и должно происходить скачивание новых серий.

Ваш клиент при этом должен произвести хеширование (проверку) старой папки (если не производит сам - помогите ему сделать это), и будет докачивать только те серии которых у вас ещё нет. Старые серии при этом не удаляются, а продолжают раздаваться!
Если вы уже удалили старые серии, то предотвратить повторную закачку старых серий можно, отжав галочку в соответствующих местах при запуске нового торрента. По возможности, желательно не удалять старые серии как можно дольше, чтобы релизер не столько продолжал раздавать старые серии, а смог сконцентрироваться на новых.
MI
General
Complete name : D:Protiv.vseh.S01.WEB-DLRip.25KuzmichProtiv.vseh.s01e01-02.WEB-DLRip.25Kuzmich.avi
Format : AVI
Format/Info : Audio Video Interleave
File size : 677 MiB
Duration : 51 min 7 s
Overall bit rate : 1 852 kb/s
Writing application : VirtualDubMod 1.5.10.3 | www.virtualdub-fr.org || (build 2550/release)
Writing library : VirtualDubMod build 2550/release

Video
ID : 0
Format : MPEG-4 Visual
Format profile : Advanced Simple@L5
Format settings : BVOP1
Format settings, BVOP : 1
Format settings, QPel : No
Format settings, GMC : No warppoints
Format settings, Matrix : Default (MPEG)
Codec ID : XVID
Codec ID/Hint : XviD
Duration : 51 min 7 s
Bit rate : 1 650 kb/s
Width : 720 pixels
Height : 400 pixels
Display aspect ratio : 16:9
Frame rate : 25.000 FPS
Color space : YUV
Chroma subsampling : 4:2:0
Bit depth : 8 bits
Scan type : Progressive
Compression mode : Lossy
Bits/(Pixel*Frame) : 0.229
Stream size : 603 MiB (89%)
Writing library : XviD 73

Audio
ID : 1
Format : AC-3
Format/Info : Audio Coding 3
Codec ID : 2000
Duration : 51 min 7 s
Bit rate mode : Constant
Bit rate : 192 kb/s
Channel(s) : 2 channels
Channel positions : Front: L R
Sampling rate : 48.0 kHz
Frame rate : 31.250 FPS (1536 SPF)
Bit depth : 16 bits
Compression mode : Lossy
Stream size : 70.2 MiB (10%)
Alignment : Split accross interleaves
Interleave, duration : 40 ms (1.00 video frame)
Interleave, preload duratio : 500 ms
Service kind : Complete Main
Скриншоты

Уважаемые пользователи!
Не забывайте оставаться на раздаче после того, как скачали торрент! Помогите скачать и другим - поддержите свободный обмен!

Если у вас НЕ получается скачать торрент файл, то используйте VPN или качайте через "Magnet ссылку"!

VPN вы можете приобрести в нашем интернет-магазине!
Размер: -//-

Против всех [01-06 из 13] (2022) WEBRip Torrent файл
Против всех [01-06 из 13] (2022) WEBRip Magnet ссылка
  • Не нравится
  • 0
  • Нравится
Категория: Наши сериалы | Добавил: TOLIAXA | Просмотров: 5 | Комментариев: 0
Уважаемый посетитель, Вы зашли на сайт как незарегистрированный пользователь.
Мы рекомендуем Вам зарегистрироваться либо войти на сайт под своим именем.
Имя:*
E-Mail:
Введите код: *
Кликните на изображение чтобы обновить код, если он неразборчив
Панель пользователя