rutor.info :: Свободный торрент трекер » Наши сериалы » СашаТаня [11х01-30 из 40] (2022) WEBRip от Files-х
  • Не нравится
  • 0
  • Нравится
Категория: Наши сериалы | Добавил: TOLIAXA | Просмотров: 2 | Комментариев: 0

СашаТаня [11х01-30 из 40] (2022) WEBRip от Files-х


Уважаемые пользователи!
Не забывайте оставаться на раздаче после того, как скачали торрент! Помогите скачать и другим - поддержите свободный обмен!

Если у вас НЕ получается скачать торрент файл, то используйте VPN или качайте через "Magnet ссылку"!

VPN вы можете приобрести в нашем интернет-магазине!
Размер: 8.59 GB (9221441536 Bytes)

СашаТаня [11х01-30 из 40] (2022) WEBRip от Files-х Torrent файл
СашаТаня [11х01-30 из 40] (2022) WEBRip от Files-х Magnet ссылка

СашаТаня [11х01-30 из 40] (2022) WEBRip от Files-х
⇒ Основная информация:
Оригинальное название: СашаТаня
Год выпуска: 2022
Жанр: Комедия
Режиссер: Александр Потапов
В ролях: Андрей Гайдулян, Валентина Рубцова, Артемий Широков, Алексей Климушкин, Андрей Свиридов, Алексей Гаврилов, Лариса Баранова (II), Виталий Гогунский, Арарат Кещян, Наталья Ходус, Виктор Полторацкий, Павел Кассинский, Сергей Рудзевич, Алина Кизиярова-Ланина

О сериале: В новом сезоне Сильвестру Андреевичу придётся превратиться из типичного олигарха в современного смарт-миллионера, который сортирует мусор и раздаёт еду нуждающимся. А Саша и Таня вынужденно станут частью нового имиджа Сергеева-старшего. При этом у Саши и Тани будет хватать и своих проблем: Саша серьёзно возьмётся за себя и будет часами пропадать в тренажёрном зале, а также в самолётах Москва – Санкт-Петербург, а Таня неожиданно превратится в жену Комарова и узнает много нового о спортивном питании. У Кати появится ухажёр-баскетболист, которого она будет тщательно скрывать, чтобы не волновать Таню. Но всё тайное становится явным, и в итоге это грозит серьёзными изменениями всему семейству. Ведь парень рано или поздно сделает Кате предложение, но что на него ответит Таня?



Страна: Россия
Студия: Кинокомпания "Comedy Club Production"
Продолжительность: 30 x ~ 00:23:00

Файл
Кодек: XviD
Качество: WEBRip
Видео: XviD, ~ 1600 Кбит/с, 720x400, 25 кадр/с
Аудио: AC3, 2 ch, 192 Кбит/с
Язык: Русский
Субтитры: Нет

Скриншоты


MediaInfo
General
Complete name: F:fiiles xСашаТаня.S08..2022.WEB-DLRip. Files-x�1. СашаТаня.S08..2022.WEB-DLRip. Files-x.avi
Format: AVI
Format/Info: Audio Video Interleave
File size: 299 MiB
Duration: 23 min 12 s
Overall bit rate: 1 799 kb/s
Writing application: VirtualDubMod 1.5.10.3 | https://www.virtualdub-fr.org || (build 2550/release)
Writing library: VirtualDubMod build 2550/release

Video
ID: 0
Format: MPEG-4 Visual
Format profile: Advanced Simple@L5
Format settings: BVOP1 / Custom Matrix
Format settings, BVOP: 1
Format settings, QPel: No
Format settings, GMC: No warppoints
Format settings, Matrix: Custom
Codec ID: XVID
Codec ID/Hint: XviD
Duration: 23 min 12 s
Bit rate: 1 598 kb/s
Width: 720 pixels
Height: 400 pixels
Display aspect ratio: 16:9
Frame rate: 25.000 FPS
Color space: YUV
Chroma subsampling: 4:2:0
Bit depth: 8 bits
Scan type: Progressive
Compression mode: Lossy
Bits/(Pixel*Frame): 0.222
Stream size: 265 MiB (89%)
Writing library: XviD 73

Audio
ID: 1
Format: AC-3
Format/Info: Audio Coding 3
Commercial name: Dolby Digital
Codec ID: 2000
Duration: 23 min 12 s
Bit rate mode: Constant
Bit rate: 192 kb/s
Channel(s): 2 channels
Channel layout: L R
Sampling rate: 48.0 kHz
Frame rate: 31.250 FPS (1536 SPF)
Compression mode: Lossy
Stream size: 31.9 MiB (11%)
Alignment: Split across interleaves
Interleave, duration: 40 ms (1.00 video frame)
Interleave, preload duratio: 500 ms
Service kind: Complete Main



Внимание! Раздача ведётся путём добавления новых серий
Раздача ведётся путём добавления новых серий, при каждом добавлении создаётся новый торрент. Чтобы начать докачку новой серии, пользователям необходимо сделать следующее:
- Остановить скачивание.
- Удалить старый торрент у себя из клиента (старые серии удалять не надо).
- Скачать новый торрент и запустить его у себя в клиенте вместо старого, при этом указать клиенту путь в старую папку куда и должно происходить скачивание новых серий.
Ваш клиент при этом должен произвести хеширование (проверку) старой папки (если не производит сам - помогите ему сделать это), и будет докачивать только те серии которых у вас ещё нет. Старые серии при этом не удаляются, а продолжают раздаваться!


Релиз от:
Уважаемые пользователи!
Не забывайте оставаться на раздаче после того, как скачали торрент! Помогите скачать и другим - поддержите свободный обмен!

Если у вас НЕ получается скачать торрент файл, то используйте VPN или качайте через "Magnet ссылку"!

VPN вы можете приобрести в нашем интернет-магазине!
Размер: 8.59 GB (9221441536 Bytes)

СашаТаня [11х01-30 из 40] (2022) WEBRip от Files-х Torrent файл
СашаТаня [11х01-30 из 40] (2022) WEBRip от Files-х Magnet ссылка
  • Не нравится
  • 0
  • Нравится
Категория: Наши сериалы | Добавил: TOLIAXA | Просмотров: 2 | Комментариев: 0
Уважаемый посетитель, Вы зашли на сайт как незарегистрированный пользователь.
Мы рекомендуем Вам зарегистрироваться либо войти на сайт под своим именем.
Имя:*
E-Mail:
Введите код: *
Кликните на изображение чтобы обновить код, если он неразборчив
Панель пользователя