rutor.info :: Свободный торрент трекер » Наши сериалы » Вампиры средней полосы [02х01-07 из 08] (2022) WEBRip 1080p
  • Не нравится
  • 0
  • Нравится
Категория: Наши сериалы | Добавил: TOLIAXA | Просмотров: 35 | Комментариев: 0

Вампиры средней полосы [02х01-07 из 08] (2022) WEBRip 1080p


Уважаемые пользователи!
Не забывайте оставаться на раздаче после того, как скачали торрент! Помогите скачать и другим - поддержите свободный обмен!

Если у вас НЕ получается скачать торрент файл, то используйте VPN или качайте через "Magnet ссылку"!

VPN вы можете приобрести в нашем интернет-магазине!
Размер: -//-

Вампиры средней полосы [02х01-07 из 08] (2022) WEBRip 1080p Torrent файл
Вампиры средней полосы [02х01-07 из 08] (2022) WEBRip 1080p Magnet ссылка

Вампиры средней полосы [02х01-07 из 08] (2022) WEBRip 1080p
⇒ Основная информация:
Информация о фильме
Название: Вампиры средней полосы
Год выхода: 2022
Жанр: Детектив, комедия, фэнтези
Режиссёр: Дмитрий Грибанов
В ролях: Юрий Стоянов, Татьяна Догилева, Артём Ткаченко, Ольга Медынич, Дмитрий Лысенков, Ева Смирнова, Екатерина Ланн, Вероника Лысакова, Юлия Беляева, Анастасия Стежко, Лукерья Ильяшенко, Дмитрий Чеботарёв, Андрей Соколов, Виталия Корниенко, Дмитрий Мальцев, Артём Федотов, Павел Южаков-Харланчук, Игорь Хрипунов, Юлия Макарова, Владимир Брест, Виталий Щербина, Николай Соловьёв, Екатерина Болотова, Олег Грисевич, Виктор Бабак, Сергей Кореньков, Тимур Бурин, Александр Волков, Маргарита Шабардыгина, Денис Сладков, Данил Смирнов, Николай Новгородцев, Денис Шаблий, Артём Жигулин, Татьяна Монахова, Андрей Артамонов

О фильме:
С летним сезоном в Смоленске появилось не только тепло, но и новые герои - от девочки Милы, ставшей свидетельницей странных убийств, до нового следователя, который много лет назад уже приезжал в город и теперь с удивлением обнаруживает в местном отделении полиции знакомое лицо. Семье деда Славы предстоит немало испытаний: им нужно сохранить свою тайну, вновь защитить город от сил зла и... ужиться с новым Хранителем.




Страна: Россия
Студия: OOO «Старт Студио»
Продолжительность: 7 х ~ 01:00:00
Язык: Русский

Премьера: 13 декабря 2022 года
Примечание: Без рекламы
Версия 18+


Файл
Формат: MKV
Качество: WEBRip 1080p
Видео: MPEG-4 AVC, ~ 6480 Кбит/с, 1920x1080
Звук: AC3, 2 ch, 256 Кбит/с
Субтитры: Русские (SDH), английские (полные) [E01-06]
Семпл

Награды
Золотой орел, 2022 год
Номинации: Лучший сериал онлайн-платформ
Скриншоты
MI
Общее
Уникальный идентификатор : 72040089889267013743281118958381837232 (0x36326AA85B231066CC358E83FA562BB0)
Полное имя : D:Vampiry.srednej.polosy.S02.2022.WEBRip.1080pVampiry.srednej.polosy.S02.E01.2022.WEBRip.1080p.mkv
Формат : Matroska
Версия формата : Version 4
Размер файла : 2,85 Гбайт
Продолжительность : 1 ч. 0 м.
Общий поток : 6 704 Кбит/сек
Название фильма : Vampiry.srednej.polosy.S02.E01.2022.WEBRip.1080p
Дата кодирования : UTC 2022-12-19 16:43:58
Программа кодирования : mkvmerge v72.0.0 ('Minuano (Six-eight)') 64-bit
Библиотека кодирования : libebml v1.4.4 + libmatroska v1.7.1
Attachments : poster.jpg

Видео
Идентификатор : 1
Формат : AVC
Формат/Информация : Advanced Video Codec
Профиль формата : High@L4
Настройки формата : CABAC / 4 Ref Frames
Параметр CABAC формата : Да
Параметр RefFrames формата : 4 кадра
Идентификатор кодека : V_MPEG4/ISO/AVC
Продолжительность : 1 ч. 0 м.
Битрейт : 6 480 Кбит/сек
Ширина : 1 920 пикселей
Высота : 1 080 пикселей
Соотношение сторон : 16:9
Режим частоты кадров : Постоянный
Частота кадров : 25,000 кадров/сек
Цветовое пространство : YUV
Субдискретизация насыщенности : 4:2:0
Битовая глубина : 8 бит
Тип развёртки : Прогрессивная
Бит/(Пиксели*Кадры) : 0.125
Размер потока : 2,74 Гбайт (96%)
Библиотека кодирования : x264 core 161
Настройки программы : cabac=1 / ref=2 / deblock=1:0:0 / analyse=0x3:0x113 / me=hex / subme=6 / psy=1 / psy_rd=1.00:0.00 / mixed_ref=1 / me_range=16 / chroma_me=1 / trellis=1 / 8x8dct=1 / cqm=0 / deadzone=21,11 / fast_pskip=1 / chroma_qp_offset=-2 / threads=12 / lookahead_threads=2 / sliced_threads=0 / nr=0 / decimate=1 / interlaced=0 / bluray_compat=0 / constrained_intra=0 / bframes=3 / b_pyramid=2 / b_adapt=1 / b_bias=0 / direct=1 / weightb=1 / open_gop=0 / weightp=1 / keyint=250 / keyint_min=25 / scenecut=40 / intra_refresh=0 / rc_lookahead=30 / rc=abr / mbtree=1 / bitrate=6480 / ratetol=1.0 / qcomp=0.60 / qpmin=0 / qpmax=69 / qpstep=4 / vbv_maxrate=7776 / vbv_bufsize=15552 / nal_hrd=none / filler=0 / ip_ratio=1.40 / aq=1:1.00
Default : Да
Forced : Нет
Цветовой диапазон : Limited
Основные цвета : BT.709
Характеристики трансфера : BT.709
Коэффициенты матрицы : BT.709

Аудио
Идентификатор : 2
Формат : AC-3
Формат/Информация : Audio Coding 3
Коммерческое название : Dolby Digital
Идентификатор кодека : A_AC3
Продолжительность : 1 ч. 0 м.
Вид битрейта : Постоянный
Битрейт : 256 Кбит/сек
Каналы : 2 канала
Channel layout : L R
Частота : 48,0 КГц
Частота кадров : 31,250 кадров/сек (1536 SPF)
Метод сжатия : С потерями
Задержка видео : -80 мс.
Размер потока : 111 Мбайт (4%)
Заголовок : [Original | AC-3 Audio]
Язык : Russian
Service kind : Complete Main
Default : Да
Forced : Нет

Текст #1
Идентификатор : 3
Формат : UTF-8
Идентификатор кодека : S_TEXT/UTF8
Идентификатор кодека/Информация : UTF-8 Plain Text
Продолжительность : 57 м. 12 с.
Битрейт : 91 бит/сек
Частота кадров : 0,203 кадр/сек
Count of elements : 698
Размер потока : 38,5 Кбайт (0%)
Заголовок : [SDH]
Язык : Russian
Default : Нет
Forced : Нет

Текст #2
Идентификатор : 4
Формат : UTF-8
Идентификатор кодека : S_TEXT/UTF8
Идентификатор кодека/Информация : UTF-8 Plain Text
Продолжительность : 56 м. 39 с.
Битрейт : 45 бит/сек
Частота кадров : 0,169 кадр/сек
Count of elements : 575
Размер потока : 19,1 Кбайт (0%)
Заголовок : [Full]
Язык : English
Default : Нет
Forced : Нет
Уважаемые пользователи!
Не забывайте оставаться на раздаче после того, как скачали торрент! Помогите скачать и другим - поддержите свободный обмен!

Если у вас НЕ получается скачать торрент файл, то используйте VPN или качайте через "Magnet ссылку"!

VPN вы можете приобрести в нашем интернет-магазине!
Размер: -//-

Вампиры средней полосы [02х01-07 из 08] (2022) WEBRip 1080p Torrent файл
Вампиры средней полосы [02х01-07 из 08] (2022) WEBRip 1080p Magnet ссылка
  • Не нравится
  • 0
  • Нравится
Категория: Наши сериалы | Добавил: TOLIAXA | Просмотров: 35 | Комментариев: 0
Уважаемый посетитель, Вы зашли на сайт как незарегистрированный пользователь.
Мы рекомендуем Вам зарегистрироваться либо войти на сайт под своим именем.
Имя:*
E-Mail:
Введите код: *
Кликните на изображение чтобы обновить код, если он неразборчив
Панель пользователя