rutor.info :: Свободный торрент трекер » Наши сериалы » Русские [01-06 из 12] (2022) WEBRip 1080p
  • Не нравится
  • 0
  • Нравится
Категория: Наши сериалы | Добавил: TOLIAXA | Просмотров: 13 | Комментариев: 0

Русские [01-06 из 12] (2022) WEBRip 1080p


Уважаемые пользователи!
Не забывайте оставаться на раздаче после того, как скачали торрент! Помогите скачать и другим - поддержите свободный обмен!

Если у вас НЕ получается скачать торрент файл, то используйте VPN или качайте через "Magnet ссылку"!

VPN вы можете приобрести в нашем интернет-магазине!
Размер: -//-

Русские [01-06 из 12] (2022) WEBRip 1080p Torrent файл
Русские [01-06 из 12] (2022) WEBRip 1080p Magnet ссылка

Русские [01-06 из 12] (2022) WEBRip 1080p
⇒ Основная информация:
Информация о фильме
Название: Русские
Год выхода: 2022
Жанр: Детектив, триллер, драма
Режиссёр: Денис Нейманд
В ролях: Пётр Рыков, Екатерина Молоховская, Владимир Литвинов, Александр Самойленко, Антон Батырев, Мария Шумакова, Елена Карпова, Игорь Ботвин, Денис Елеонский, Кристина Куца, Роман Агеев, Сергей Ионкин, Данила Воропаев, Всеволод Клименок, Мирон Проворов, Александр Белоусов, Руслан Бальбуциев, Максим Меркулов, Юлия Кудояр, Евгений Добряков, Влад Фельдман, Алексей Парасевич, Борис Бирман, Сергей Стукалов, Валерий Смекалов, Илья Шакунов, Лиза Мартинес, Игорь Филиппов, Александр Удальцов, Жан-Мишель Щербак, Руслан Кацагаджиев, Максим Ханжов, Денис Васильев, Дарья Ленда, Юлия Хейнлайд, Эльдар Лебедев, Андрей Полищук, Антонис Шаманиди, Стэнли Красовицки, Мария Фефилова, Арина Полякова, Константин Захаров, Тимур Хайруллин, Виталий Куклин, Кристина Ким, Роман Каун, Никита Шамов

О фильме:
Основано на реальных событиях. 2003 год. Кэтрин и Жорж Готье живут в Вашингтоне. Кэтрин работает в своей маленькой фотостудии, Жорж преподает в Джорджтаунском университете. С виду, обычная семья, но на самом деле они агенты Службы внешней разведки России Вера Свиблова и Антон Вязин. В США они собирают данные о секретном плане «Зона влияния» по разрушению экономики России. Поначалу у Жорж и Кэтрин все складывается благополучно, но вскоре «крот» в рядах российской разведки сдает супругов, и за ними начинается настоящая охота ФБР. Спасая свои жизни, Вера и Антон пытаются сохранить брак. Чтобы получить необходимую информацию, Антону нужно пойти на супружескую измену. Для Веры это становится тяжелым ударом, который ставит под угрозу существования и их пару, и профессиональный союз.




Страна: Россия
Студия: Производство ООО «Триикс Медиа» и ООО «Кино Альянс» по заказу АО «Телекомпания НТВ»
Продолжительность: 6 х ~ 00:50:00
Язык: Русский

Премьера в Росcии: 10 января 2023 года
Цифровой релиз: 10 января 2023 года
Примечание: Без рекламы
Возраст: 16+

Файл
Формат: MKV
Качество: WEBRip 1080p
Видео: MPEG-4 AVC, ~ 4500 Кбит/с, 1920x1072
Звук: AC3, 2 ch, 192 Кбит/с
Субтитры: Русские (вшитые)
Семпл

Скриншоты
MI
Общее
Уникальный идентификатор : 55613323542375586488610655879670915387 (0x29D6BC8C0823F3DC05A194AAFBA9E13B)
Полное имя : D:Russkie.S01.2022.WEBRip.1080pRusskie.S01.E01.2022.WEBRip.1080p.mkv
Формат : Matroska
Версия формата : Version 4
Размер файла : 1,60 Гбайт
Продолжительность : 48 м. 42 с.
Режим общего битрейта : Переменный
Общий поток : 4 689 Кбит/сек
Название фильма : Russkie.S01.E01.2022.WEBRip.1080p
Дата кодирования : UTC 2023-01-09 21:32:06
Программа кодирования : mkvmerge v72.0.0 ('Minuano (Six-eight)') 64-bit
Библиотека кодирования : libebml v1.4.4 + libmatroska v1.7.1
Attachments : poster.jpg

Видео
Идентификатор : 1
Формат : AVC
Формат/Информация : Advanced Video Codec
Профиль формата : High@L4.1
Настройки формата : CABAC / 2 Ref Frames
Параметр CABAC формата : Да
Параметр RefFrames формата : 2 кадра
Идентификатор кодека : V_MPEG4/ISO/AVC
Продолжительность : 48 м. 42 с.
Вид битрейта : Переменный
Битрейт : 4 500 Кбит/сек
Ширина : 1 920 пикселей
Высота : 1 072 пикселя
Соотношение сторон : 16:9
Режим частоты кадров : Постоянный
Частота кадров : 25,000 кадров/сек
Цветовое пространство : YUV
Субдискретизация насыщенности : 4:2:0
Битовая глубина : 8 бит
Тип развёртки : Прогрессивная
Бит/(Пиксели*Кадры) : 0.087
Размер потока : 1,53 Гбайт (96%)
Default : Да
Forced : Нет
Цветовой диапазон : Limited
Основные цвета : BT.709
Характеристики трансфера : BT.709
Коэффициенты матрицы : BT.709

Аудио
Идентификатор : 2
Формат : AC-3
Формат/Информация : Audio Coding 3
Коммерческое название : Dolby Digital
Идентификатор кодека : A_AC3
Продолжительность : 48 м. 42 с.
Вид битрейта : Постоянный
Битрейт : 192 Кбит/сек
Каналы : 2 канала
Channel layout : L R
Частота : 48,0 КГц
Частота кадров : 31,250 кадров/сек (1536 SPF)
Метод сжатия : С потерями
Задержка видео : -120 мс.
Размер потока : 66,9 Мбайт (4%)
Заголовок : [Original | 2.0 AC-3 Audio]
Язык : Russian
Service kind : Complete Main
Default : Да
Forced : Нет
Уважаемые пользователи!
Не забывайте оставаться на раздаче после того, как скачали торрент! Помогите скачать и другим - поддержите свободный обмен!

Если у вас НЕ получается скачать торрент файл, то используйте VPN или качайте через "Magnet ссылку"!

VPN вы можете приобрести в нашем интернет-магазине!
Размер: -//-

Русские [01-06 из 12] (2022) WEBRip 1080p Torrent файл
Русские [01-06 из 12] (2022) WEBRip 1080p Magnet ссылка
  • Не нравится
  • 0
  • Нравится
Категория: Наши сериалы | Добавил: TOLIAXA | Просмотров: 13 | Комментариев: 0
Уважаемый посетитель, Вы зашли на сайт как незарегистрированный пользователь.
Мы рекомендуем Вам зарегистрироваться либо войти на сайт под своим именем.
Имя:*
E-Mail:
Введите код: *
Кликните на изображение чтобы обновить код, если он неразборчив
Панель пользователя