rutor.info :: Свободный торрент трекер » Наши сериалы » А зори здесь тихие... [01-04 из 04] (2015) WEB-DLRip от New-Team
  • Не нравится
  • 0
  • Нравится
Категория: Наши сериалы | Добавил: TOLIAXA | Просмотров: 4 | Комментариев: 0

А зори здесь тихие... [01-04 из 04] (2015) WEB-DLRip от New-Team


Уважаемые пользователи!
Не забывайте оставаться на раздаче после того, как скачали торрент! Помогите скачать и другим - поддержите свободный обмен!

Если у вас НЕ получается скачать торрент файл, то используйте VPN или качайте через "Magnet ссылку"!

VPN вы можете приобрести в нашем интернет-магазине!
Размер: 2.18 GB (2341109760 Bytes)

А зори здесь тихие... [01-04 из 04] (2015) WEB-DLRip от New-Team Torrent файл
А зори здесь тихие... [01-04 из 04] (2015) WEB-DLRip от New-Team Magnet ссылка

А зори здесь тихие... [01-04 из 04] (2015) WEB-DLRip от New-Team
⇒ Основная информация:
Страна: Россия
Студия: Интерфест, Реал-Дакота, Star Media

Жанр: драма, военный, история
Год выпуска: 2015
Продолжительность: 02:58:28 (00:44:31 + 00:44:42 + 00:44:39 + 00:42:36)

Перевод: не требуется
Субтитры: нет
Оригинальная аудиодорожка: русский

Режиссер: Ренат Давлетьяров

В ролях:
Пётр Фёдоров (младший), Анастасия Микульчина, Евгения Малахова, Кристина Асмус, Агния Кузнецова, Софья Лебедева, Екатерина Вилкова, Анатолий Белый, Дарья Мороз, Виктор Проскурин, Алексей Барабаш, Максим Дрозд, Ольга Ломоносова, Наталья Батрак, Илья Алексеев, Валерий Гришко, Евгения Ульянова, Сергей Видинеев, Юлия Силаева, Елена Медведева, Илья Ермолов, Василиса Кучеренко, Алеся Гузько, Юлия Полынская, Надежда Азоркина, Евгений Костин, Арчибальд Арчибальдович...
Подробнее об актерах

Описание:
Май 1942 года. В самый разгар Великой Отечественной Войны вдалеке от линии фронта, у забытого богом разъезда, фашисты выбрасывают десант с целью пробраться на Кировскую железную дорогу и Беломорско-Балтийский канал. Это не обычные солдаты-пехотинцы, это опытные, тренированные диверсанты, элита войск СС, «сверхлюди». А против них — старшина Васков и пятеро девчонок-зенитчиц. Казалось бы, бой местного значения, но на кону — стратегически важная транспортная артерия, соединяющая значимые центры страны. Смогут ли старшина и его хрупкие новобранцы предотвратить нацистскую диверсию, и какой ценой?






Исходник: WEB-DL 1080p
Тип релиза: WEB-DLRip
Контейнер: AVI

Видео: 720x400 (16:9), 25,000 кадров/сек, XviD 73 ~ 1567 кбит/сек, 0.218 бит/пиксель
Аудио: 48 кГц, Dolby Digital AC3 2.0, 192 кбит/сек

Раздача от:
MediaInfo

Общее
Полное имя : А зори здесь тихие...2015.WEB-DLRip_[New-team]_by_AVP_Studio.avi
Формат : AVI
Формат/Информация : Audio Video Interleave
Размер файла : 564 Мбайт
Продолжительность : 44 м. 31 с.
Общий поток : 1 769 Кбит/сек
Программа кодирования : VirtualDubMod 1.5.10.3 | www.virtualdub-fr.org || (build 2550/release)
Библиотека кодирования : VirtualDubMod build 2550/release

Видео
Идентификатор : 0
Формат : MPEG-4 Visual
Профиль формата : Advanced Simple@L5
Настройки формата : BVOP1 / Custom Matrix
Параметр BVOP формата : 1
Параметр QPel формата : Нет
Параметр GMC формата : Без точки перехода
Параметр матрицы формата : Выборочная
Идентификатор кодека : XVID
Идентификатор кодека/Подсказка : XviD
Продолжительность : 44 м. 31 с.
Битрейт : 1 567 Кбит/сек
Ширина : 720 пикселей
Высота : 400 пикселей
Соотношение сторон : 16:9
Частота кадров : 25,000 кадров/сек
Цветовое пространство : YUV
Субдискретизация насыщенности : 4:2:0
Битовая глубина : 8 бит
Тип развёртки : Прогрессивная
Метод сжатия : С потерями
Бит/(Пиксели*Кадры) : 0.218
Размер потока : 499 Мбайт (89%)
Библиотека кодирования : XviD 73

Аудио
Идентификатор : 1
Формат : AC-3
Формат/Информация : Audio Coding 3
Коммерческое название : Dolby Digital
Идентификатор кодека : 2000
Продолжительность : 44 м. 31 с.
Вид битрейта : Постоянный
Битрейт : 192 Кбит/сек
Каналы : 2 канала
Channel layout : L R
Частота : 48,0 КГц
Частота кадров : 31,250 кадров/сек (1536 SPF)
Метод сжатия : С потерями
Размер потока : 61,2 Мбайт (11%)
Выравнивание : Разделение по промежуткам
Продолжительность промежутка : 40 мс. (1,00 видеокадр)
Время предзагрузки промежутка : 500 мс

Скриншоты


Уважаемые пользователи!
Не забывайте оставаться на раздаче после того, как скачали торрент! Помогите скачать и другим - поддержите свободный обмен!

Если у вас НЕ получается скачать торрент файл, то используйте VPN или качайте через "Magnet ссылку"!

VPN вы можете приобрести в нашем интернет-магазине!
Размер: 2.18 GB (2341109760 Bytes)

А зори здесь тихие... [01-04 из 04] (2015) WEB-DLRip от New-Team Torrent файл
А зори здесь тихие... [01-04 из 04] (2015) WEB-DLRip от New-Team Magnet ссылка
  • Не нравится
  • 0
  • Нравится
Категория: Наши сериалы | Добавил: TOLIAXA | Просмотров: 4 | Комментариев: 0
Уважаемый посетитель, Вы зашли на сайт как незарегистрированный пользователь.
Мы рекомендуем Вам зарегистрироваться либо войти на сайт под своим именем.
Имя:*
E-Mail:
Введите код: *
Кликните на изображение чтобы обновить код, если он неразборчив
Панель пользователя