rutor.info :: Свободный торрент трекер » Наши сериалы » А зори здесь тихие... [1-4 из 4] (2015) WEB-DLRip-AVC от New-Team
  • Не нравится
  • 0
  • Нравится
Категория: Наши сериалы | Добавил: TOLIAXA | Просмотров: 1 | Комментариев: 0

А зори здесь тихие... [1-4 из 4] (2015) WEB-DLRip-AVC от New-Team


Уважаемые пользователи!
Не забывайте оставаться на раздаче после того, как скачали торрент! Помогите скачать и другим - поддержите свободный обмен!

Если у вас НЕ получается скачать торрент файл, то используйте VPN или качайте через "Magnet ссылку"!

VPN вы можете приобрести в нашем интернет-магазине!
Размер: 2.91 GB (3122280527 Bytes)

А зори здесь тихие... [1-4 из 4] (2015) WEB-DLRip-AVC от New-Team Torrent файл
А зори здесь тихие... [1-4 из 4] (2015) WEB-DLRip-AVC от New-Team Magnet ссылка

А зори здесь тихие... [1-4 из 4] (2015) WEB-DLRip-AVC от New-Team
⇒ Основная информация:
Страна: Россия
Студия: Интерфест, Реал-Дакота, Star Media

Жанр: драма, военный, история
Год выпуска: 2015
Продолжительность: 02:58:28 (00:44:31 + 00:44:42 + 00:44:39 + 00:42:36)

Перевод: не требуется
Субтитры: нет
Оригинальная аудиодорожка: русский

Режиссер: Ренат Давлетьяров

В ролях:
Пётр Фёдоров (младший), Анастасия Микульчина, Евгения Малахова, Кристина Асмус, Агния Кузнецова, Софья Лебедева, Екатерина Вилкова, Анатолий Белый, Дарья Мороз, Виктор Проскурин, Алексей Барабаш, Максим Дрозд, Ольга Ломоносова, Наталья Батрак, Илья Алексеев, Валерий Гришко, Евгения Ульянова, Сергей Видинеев, Юлия Силаева, Елена Медведева, Илья Ермолов, Василиса Кучеренко, Алеся Гузько, Юлия Полынская, Надежда Азоркина, Евгений Костин, Арчибальд Арчибальдович...
Подробнее об актерах

Описание:
Май 1942 года. В самый разгар Великой Отечественной Войны вдалеке от линии фронта, у забытого богом разъезда, фашисты выбрасывают десант с целью пробраться на Кировскую железную дорогу и Беломорско-Балтийский канал. Это не обычные солдаты-пехотинцы, это опытные, тренированные диверсанты, элита войск СС, «сверхлюди». А против них — старшина Васков и пятеро девчонок-зенитчиц. Казалось бы, бой местного значения, но на кону — стратегически важная транспортная артерия, соединяющая значимые центры страны. Смогут ли старшина и его хрупкие новобранцы предотвратить нацистскую диверсию, и какой ценой?






Исходник: WEB-DL 1080p
Тип релиза: WEB-DLRip-AVC
Контейнер: MKV

Видео: 1024x576 (16:9), 25,000 кадров/сек, x264 core 164 ~ 2165 кбит/сек, 0.147 бит/пиксель
Аудио: 48 кГц, Dolby Digital AC3 2.0, 192 кбит/сек

Раздача от:
MediaInfo

Общее
Полное имя : А зори здесь тихие...2015.WEB-DLRip-AVC_[New-team]_by_AVP_Studio.mkv
Формат : Matroska
Версия формата : Version 2
Размер файла : 751 Мбайт
Продолжительность : 44 м. 31 с.
Общий поток : 2 359 Кбит/сек
Дата кодирования : UTC 2023-01-23 19:08:09
Программа кодирования : mkvmerge v6.9.1 ('Blue Panther') 32bit built on Apr 18 2014 18:15:44
Библиотека кодирования : libebml v1.3.0 + libmatroska v1.4.1

Видео
Идентификатор : 1
Формат : AVC
Формат/Информация : Advanced Video Codec
Профиль формата : High@L4.1
Настройки формата : CABAC / 10 Ref Frames
Параметр CABAC формата : Да
Параметр RefFrames формата : 10 кадров
Идентификатор кодека : V_MPEG4/ISO/AVC
Продолжительность : 44 м. 31 с.
Битрейт : 2 165 Кбит/сек
Ширина : 1 024 пикселя
Высота : 576 пикселей
Соотношение сторон : 16:9
Режим частоты кадров : Постоянный
Частота кадров : 25,000 кадров/сек
Цветовое пространство : YUV
Субдискретизация насыщенности : 4:2:0
Битовая глубина : 8 бит
Тип развёртки : Прогрессивная
Бит/(Пиксели*Кадры) : 0.147
Размер потока : 675 Мбайт (90%)
Библиотека кодирования : x264 core 164 r3081 19856cc
Настройки программы : cabac=1 / ref=10 / deblock=1:-3:-2 / analyse=0x3:0x113 / me=umh / subme=10 / psy=1 / psy_rd=1.00:0.00 / mixed_ref=1 / me_range=32 / chroma_me=1 / trellis=2 / 8x8dct=1 / cqm=0 / deadzone=21,11 / fast_pskip=1 / chroma_qp_offset=-2 / threads=6 / lookahead_threads=1 / sliced_threads=0 / nr=0 / decimate=0 / interlaced=0 / bluray_compat=0 / constrained_intra=0 / bframes=8 / b_pyramid=2 / b_adapt=2 / b_bias=0 / direct=3 / weightb=1 / open_gop=0 / weightp=2 / keyint=250 / keyint_min=25 / scenecut=40 / intra_refresh=0 / rc_lookahead=40 / rc=2pass / mbtree=1 / bitrate=2165 / ratetol=1.0 / qcomp=0.60 / qpmin=0 / qpmax=69 / qpstep=4 / cplxblur=20.0 / qblur=0.5 / ip_ratio=1.40 / aq=1:1.00
Default : Да
Forced : Нет

Аудио
Идентификатор : 2
Формат : AC-3
Формат/Информация : Audio Coding 3
Коммерческое название : Dolby Digital
Идентификатор кодека : A_AC3
Продолжительность : 44 м. 31 с.
Вид битрейта : Постоянный
Битрейт : 192 Кбит/сек
Каналы : 2 канала
Channel layout : L R
Частота : 48,0 КГц
Частота кадров : 31,250 кадров/сек (1536 SPF)
Метод сжатия : С потерями
Размер потока : 61,2 Мбайт (8%)
Default : Да
Forced : Нет

Скриншоты


Уважаемые пользователи!
Не забывайте оставаться на раздаче после того, как скачали торрент! Помогите скачать и другим - поддержите свободный обмен!

Если у вас НЕ получается скачать торрент файл, то используйте VPN или качайте через "Magnet ссылку"!

VPN вы можете приобрести в нашем интернет-магазине!
Размер: 2.91 GB (3122280527 Bytes)

А зори здесь тихие... [1-4 из 4] (2015) WEB-DLRip-AVC от New-Team Torrent файл
А зори здесь тихие... [1-4 из 4] (2015) WEB-DLRip-AVC от New-Team Magnet ссылка
  • Не нравится
  • 0
  • Нравится
Категория: Наши сериалы | Добавил: TOLIAXA | Просмотров: 1 | Комментариев: 0
Уважаемый посетитель, Вы зашли на сайт как незарегистрированный пользователь.
Мы рекомендуем Вам зарегистрироваться либо войти на сайт под своим именем.
Имя:*
E-Mail:
Введите код: *
Кликните на изображение чтобы обновить код, если он неразборчив
Панель пользователя