rutor.info :: Свободный торрент трекер » Наши сериалы » Жена олигарха [02х01-11 из 17] (2022) WEB-DL 1080p
  • Не нравится
  • 0
  • Нравится
Категория: Наши сериалы | Добавил: TOLIAXA | Просмотров: 0 | Комментариев: 0

Жена олигарха [02х01-11 из 17] (2022) WEB-DL 1080p


Уважаемые пользователи!
Не забывайте оставаться на раздаче после того, как скачали торрент! Помогите скачать и другим - поддержите свободный обмен!

Если у вас НЕ получается скачать торрент файл, то используйте VPN или качайте через "Magnet ссылку"!

VPN вы можете приобрести в нашем интернет-магазине!
Размер: -//-

Жена олигарха [02х01-11 из 17] (2022) WEB-DL 1080p Torrent файл
Жена олигарха [02х01-11 из 17] (2022) WEB-DL 1080p Magnet ссылка

Жена олигарха [02х01-11 из 17] (2022) WEB-DL 1080p
⇒ Основная информация:
Информация о фильме
Название: Жена олигарха
Год выхода: 2022
Жанр: Комедия
Режиссёр: Мария Кравченко
В ролях: Елена Подкаминская, Владимир Гостюхин, Маргарита Дьяченкова, Кай Алекс Гетц, Антон Филипенко, Александр Обласов, Евгения Капралова, Даниил Киселев, Алексей Маклаков, Вадим Соснин, Людмила Артемьева, Валерий Панков, Сандра Сантонес, Анастасия Матвеева, Анастасия Калашникова, Грув, Денис Варенов, Юлия Акимова, Светлана Нестерова, Евгений Пилипенко, Марина Барсукова, Александр Кузнецов, Вадим Салахов, Антон Никушин, Мария Букнис, Генриетта Автушенко, Владимир Якимов, Михаил Коновалов, Игорь Трафлялин, Виктор Боборыкин

О фильме:
После присвоения «Кирзачсумкапрому» статуса исторического памятника хозяйка завода Альбина ищет способы вернуть его в строй. Не в силах достучаться до местного мэра-лентяя, экс-миллионерша из Лондона решает выдвинуть свою кандидатуру на выборах. Правда, погружаясь в мир политики, просветлённая йогиня не замечает, как сама становится на скользкую дорожку.




Страна: Россия
Студия: Keystone Production
Продолжительность: 11 х ~ 00:24:00
Язык: Русский

Премьера в Росcии: 09 января 2023 года
Цифровой релиз: 09 января 2023 года
Примечание: Без рекламы
Возраст: 16+

Файл
Формат: MKV
Качество: WEB-DL 1080p
Видео: MPEG-4 AVC, ~ 3800 Кбит/с, 1920x1080
Звук: AC3, 2 ch, 192 Кбит/с
Субтитры: Отсутствуют
Семпл

Скриншоты
MI
Общее
Уникальный идентификатор : 190033583348099141251790253165916589637 (0x8EF7230951677CC91E1D908465420E45)
Полное имя : C:Zhena.oligarha.S02.2022.WEB-DL.1080pZhena.oligarha.S02.E01.2022.WEB-DL.1080p.mkv
Формат : Matroska
Версия формата : Version 4
Размер файла : 719 Мбайт
Продолжительность : 25 м. 15 с.
Общий поток : 3 978 Кбит/сек
Название фильма : Zhena.oligarha.S02.E01.2022.WEB-DL.1080p
Дата кодирования : UTC 2023-01-09 16:26:31
Программа кодирования : mkvmerge v72.0.0 ('Minuano (Six-eight)') 64-bit
Библиотека кодирования : libebml v1.4.4 + libmatroska v1.7.1
Attachments : poster.jpg

Видео
Идентификатор : 1
Формат : AVC
Формат/Информация : Advanced Video Codec
Профиль формата : High@L4.1
Настройки формата : CABAC / 4 Ref Frames
Параметр CABAC формата : Да
Параметр RefFrames формата : 4 кадра
Параметр GOP формата : M=4, N=50
Идентификатор кодека : V_MPEG4/ISO/AVC
Продолжительность : 25 м. 15 с.
Битрейт : 3 783 Кбит/сек
Ширина : 1 920 пикселей
Высота : 1 080 пикселей
Соотношение сторон : 16:9
Режим частоты кадров : Постоянный
Частота кадров : 25,000 кадров/сек
Стандарт вещания : PAL
Цветовое пространство : YUV
Субдискретизация насыщенности : 4:2:0
Битовая глубина : 8 бит
Тип развёртки : Прогрессивная
Бит/(Пиксели*Кадры) : 0.073
Размер потока : 684 Мбайт (95%)
Default : Да
Forced : Нет
Цветовой диапазон : Limited
Основные цвета : BT.709
Характеристики трансфера : BT.709
Коэффициенты матрицы : BT.709

Аудио
Идентификатор : 2
Формат : AC-3
Формат/Информация : Audio Coding 3
Коммерческое название : Dolby Digital
Идентификатор кодека : A_AC3
Продолжительность : 25 м. 15 с.
Вид битрейта : Постоянный
Битрейт : 192 Кбит/сек
Каналы : 2 канала
Channel layout : L R
Частота : 48,0 КГц
Частота кадров : 31,250 кадров/сек (1536 SPF)
Метод сжатия : С потерями
Размер потока : 34,7 Мбайт (5%)
Заголовок : [Original | 2.0 AC-3 Audio]
Язык : Russian
Service kind : Complete Main
Default : Да
Forced : Нет
Уважаемые пользователи!
Не забывайте оставаться на раздаче после того, как скачали торрент! Помогите скачать и другим - поддержите свободный обмен!

Если у вас НЕ получается скачать торрент файл, то используйте VPN или качайте через "Magnet ссылку"!

VPN вы можете приобрести в нашем интернет-магазине!
Размер: -//-

Жена олигарха [02х01-11 из 17] (2022) WEB-DL 1080p Torrent файл
Жена олигарха [02х01-11 из 17] (2022) WEB-DL 1080p Magnet ссылка
  • Не нравится
  • 0
  • Нравится
Категория: Наши сериалы | Добавил: TOLIAXA | Просмотров: 0 | Комментариев: 0
Уважаемый посетитель, Вы зашли на сайт как незарегистрированный пользователь.
Мы рекомендуем Вам зарегистрироваться либо войти на сайт под своим именем.
Имя:*
E-Mail:
Введите код: *
Кликните на изображение чтобы обновить код, если он неразборчив
Панель пользователя