rutor.info :: Свободный торрент трекер » Наши сериалы » СашаТаня [11х01-31 из 40] (2022) WEBRip 1080p
  • Не нравится
  • 0
  • Нравится
Категория: Наши сериалы | Добавил: TOLIAXA | Просмотров: 1 | Комментариев: 0

СашаТаня [11х01-31 из 40] (2022) WEBRip 1080p


Уважаемые пользователи!
Не забывайте оставаться на раздаче после того, как скачали торрент! Помогите скачать и другим - поддержите свободный обмен!

Если у вас НЕ получается скачать торрент файл, то используйте VPN или качайте через "Magnet ссылку"!

VPN вы можете приобрести в нашем интернет-магазине!
Размер: -//-

СашаТаня [11х01-31 из 40] (2022) WEBRip 1080p Torrent файл
СашаТаня [11х01-31 из 40] (2022) WEBRip 1080p Magnet ссылка

СашаТаня [11х01-31 из 40] (2022) WEBRip 1080p
⇒ Основная информация:
Информация о фильме
Название: СашаТаня
Год выхода: 2022
Жанр: Комедия
Режиссер: Александр Потапов
В ролях: Андрей Гайдулян, Валентина Рубцова, Артемий Широков, Алексей Климушкин, Андрей Свиридов, Алексей Гаврилов, Лариса Баранова (II), Виталий Гогунский, Арарат Кещян, Наталья Ходус, Виктор Полторацкий, Павел Кассинский, Сергей Рудзевич, Алина Ланина

О фильме:
В новом сезоне Сильвестру Андреевичу придётся превратиться из типичного олигарха в современного смарт-миллионера, который сортирует мусор и раздаёт еду нуждающимся. А Саша и Таня вынужденно станут частью нового имиджа Сергеева-старшего. При этом у Саши и Тани будет хватать и своих проблем: Саша серьёзно возьмётся за себя и будет часами пропадать в тренажёрном зале, а также в самолётах Москва – Санкт-Петербург, а Таня неожиданно превратится в жену Комарова и узнает много нового о спортивном питании. У Кати появится ухажёр-баскетболист, которого она будет тщательно скрывать, чтобы не волновать Таню. Но всё тайное становится явным, и в итоге это грозит серьёзными изменениями всему семейству. Ведь парень рано или поздно сделает Кате предложение, но что на него ответит Таня?



Страна: Россия
Студия: Производство ООО «Комеди Клаб Продакшн»
Продолжительность: 31 х ~ 00:24:00
Язык: Русский

Премьера: 16 мая 2022 года
Примечание: Без рекламы

Файл
Формат: MKV
Качество: WEBRip 1080p
Видео: MPEG-4 AVC, ~ 4500 Кбит/с, 1920x1072
Звук: AC3, 2 ch, 192 Кбит/с
Субтитры: Отсутствуют
Семпл

Скриншоты
MI
Общее
Уникальный идентификатор : 104325232742254335876503010354420390640 (0x4E7C4F189D7B1EE6728274B9E1221AF0)
Полное имя : D:SashaTanya.S07.2022.WEBRip.1080pSashaTanya.S07.E01.2022.WEBRip.1080p.mkv
Формат : Matroska
Версия формата : Version 4
Размер файла : 780 Мбайт
Продолжительность : 23 м. 12 с.
Режим общего битрейта : Переменный
Общий поток : 4 701 Кбит/сек
Название фильма : SashaTanya.S07.E01.2022.WEBRip.1080p
Дата кодирования : UTC 2022-05-16 17:33:02
Программа кодирования : mkvmerge v66.0.0 ('Josie') 64-bit
Библиотека кодирования : libebml v1.4.2 + libmatroska v1.6.4
Attachments : poster.jpg

Видео
Идентификатор : 1
Формат : AVC
Формат/Информация : Advanced Video Codec
Профиль формата : High@L4.1
Настройки формата : CABAC / 2 Ref Frames
Параметр CABAC формата : Да
Параметр RefFrames формата : 2 кадра
Идентификатор кодека : V_MPEG4/ISO/AVC
Продолжительность : 23 м. 12 с.
Вид битрейта : Переменный
Битрейт : 4 500 Кбит/сек
Ширина : 1 920 пикселей
Высота : 1 072 пикселя
Соотношение сторон : 16:9
Режим частоты кадров : Постоянный
Частота кадров : 25,000 кадров/сек
Цветовое пространство : YUV
Субдискретизация насыщенности : 4:2:0
Битовая глубина : 8 бит
Тип развёртки : Прогрессивная
Бит/(Пиксели*Кадры) : 0.087
Размер потока : 747 Мбайт (96%)
Default : Да
Forced : Нет
Цветовой диапазон : Limited
Основные цвета : BT.709
Характеристики трансфера : BT.709
Коэффициенты матрицы : BT.709

Аудио
Идентификатор : 2
Формат : AC-3
Формат/Информация : Audio Coding 3
Коммерческое название : Dolby Digital
Идентификатор кодека : A_AC3
Продолжительность : 23 м. 12 с.
Вид битрейта : Постоянный
Битрейт : 192 Кбит/сек
Каналы : 2 канала
Channel layout : L R
Частота : 48,0 КГц
Частота кадров : 31,250 кадров/сек (1536 SPF)
Метод сжатия : С потерями
Задержка видео : -120 мс.
Размер потока : 31,9 Мбайт (4%)
Service kind : Complete Main
Default : Да
Forced : Нет
Уважаемые пользователи!
Не забывайте оставаться на раздаче после того, как скачали торрент! Помогите скачать и другим - поддержите свободный обмен!

Если у вас НЕ получается скачать торрент файл, то используйте VPN или качайте через "Magnet ссылку"!

VPN вы можете приобрести в нашем интернет-магазине!
Размер: -//-

СашаТаня [11х01-31 из 40] (2022) WEBRip 1080p Torrent файл
СашаТаня [11х01-31 из 40] (2022) WEBRip 1080p Magnet ссылка
  • Не нравится
  • 0
  • Нравится
Категория: Наши сериалы | Добавил: TOLIAXA | Просмотров: 1 | Комментариев: 0
Уважаемый посетитель, Вы зашли на сайт как незарегистрированный пользователь.
Мы рекомендуем Вам зарегистрироваться либо войти на сайт под своим именем.
Имя:*
E-Mail:
Введите код: *
Кликните на изображение чтобы обновить код, если он неразборчив
Панель пользователя