• Не нравится
  • 0
  • Нравится
Категория: Наши сериалы | Добавил: TOLIAXA | Просмотров: 1 | Комментариев: 0

Стрим [01-15 из 20] (2022) WEBRip 1080p


Уважаемые пользователи!
Не забывайте оставаться на раздаче после того, как скачали торрент! Помогите скачать и другим - поддержите свободный обмен!

Если у вас НЕ получается скачать торрент файл, то используйте VPN или качайте через "Magnet ссылку"!

VPN вы можете приобрести в нашем интернет-магазине!
Размер: -//-

Стрим [01-15 из 20] (2022) WEBRip 1080p Torrent файл
Стрим [01-15 из 20] (2022) WEBRip 1080p Magnet ссылка

Стрим [01-15 из 20] (2022) WEBRip 1080p
⇒ Основная информация:
Информация о фильме
Название: Стрим
Год выхода: 2022
Жанр: Комедия
Режиссёр: Рустам Ильясов, Виктория Корлякова
В ролях: Денис Власенко, Александра Дроздова, Тимофей Елецкий, Александра Урсуляк, Семён Штейнберг, Софья Райзман, Антон Филипенко, Александр Семчев, Алексей Маклаков, Ольга Дибцева, Иван Добронравов, Ольга Тумайкина, Иван Агапов, Дмитрий Журавлев, Елизавета Запорожец, Арина Слесарева, Фёдор Парамонов, Андрей Дудников, Артур Павленко, Александр Тарасов, Александра Николенко, Виталий Щербина, Полина Звягинцева, Влада Лукина, Антон Шаврин, Марина Клещёва, Елена Муравьева, Галина Безрук, Виталийс Семёновс, Мария Звонарева, Николай Козак, Андрей Курносов, Владимир Гарцунов, Павел Ворожцов, Евгений Харитонов, Дарья Алыпова, Сергей Степин, Данил Тябин, Галина Боб, Таша Цветкова, Андрей Харыбин, Никита Златоуст, Людмила Галиаскарова, Эрик Яралов, Наталья Унгард, Альянура Третьякова, Виктор Низовой, Дмитрий Воздвиженский, Светлана Свибильская

О фильме:
Жора вместе с родителями переезжает в другой город, где никак не может наладить отношения с одноклассниками, да и учителя к нему откровенно придираются. Устав терпеть тотальную несправедливость, Жора решает с ней бороться, причём нестандартным образом: школьник надевает на голову шлем с вмонтированной в него камерой и начинает транслировать в интернет всё, что видит дома и в школе.




Страна: Россия
Студия: Комеди Клаб продакшн
Продолжительность: 15 х ~ 00:24:00
Язык: Русский

Премьера в Росcии: 09 января 2023 года
Цифровой релиз: 09 января 2023 года
Примечание: Без рекламы
Возраст: 16+

Файл
Формат: MKV
Качество: WEBRip 1080p
Видео: MPEG-4 AVC, ~ 4500 Кбит/с, 1920x1072, 1920x816
Звук: AC3, 2 ch, 192 Кбит/с
Субтитры: Отсутствуют
Семпл

Скриншоты
MI
Общее
Уникальный идентификатор : 112888260132458350237225048106273654271 (0x54ED7CF13B0C6E656BEC050A7024C5FF)
Полное имя : C:Strim.S01.2022.WEBRip.1080pStrim.S01.E01.2022.WEBRip.1080p.mkv
Формат : Matroska
Версия формата : Version 4
Размер файла : 761 Мбайт
Продолжительность : 22 м. 57 с.
Режим общего битрейта : Переменный
Общий поток : 4 635 Кбит/сек
Название фильма : Strim.S01.E01.2022.WEBRip.1080p
Дата кодирования : UTC 2023-01-09 18:31:28
Программа кодирования : mkvmerge v72.0.0 ('Minuano (Six-eight)') 64-bit
Библиотека кодирования : libebml v1.4.4 + libmatroska v1.7.1
Attachments : poster.jpg

Видео
Идентификатор : 1
Формат : AVC
Формат/Информация : Advanced Video Codec
Профиль формата : High@L4.1
Настройки формата : CABAC / 2 Ref Frames
Параметр CABAC формата : Да
Параметр RefFrames формата : 2 кадра
Идентификатор кодека : V_MPEG4/ISO/AVC
Продолжительность : 22 м. 57 с.
Вид битрейта : Переменный
Битрейт : 4 436 Кбит/сек
Максимальный битрейт : 4 500 Кбит/сек
Ширина : 1 920 пикселей
Высота : 1 072 пикселя
Соотношение сторон : 16:9
Режим частоты кадров : Постоянный
Частота кадров : 25,000 кадров/сек
Цветовое пространство : YUV
Субдискретизация насыщенности : 4:2:0
Битовая глубина : 8 бит
Тип развёртки : Прогрессивная
Бит/(Пиксели*Кадры) : 0.086
Размер потока : 729 Мбайт (96%)
Default : Да
Forced : Нет
Цветовой диапазон : Limited
Основные цвета : BT.709
Характеристики трансфера : BT.709

Аудио
Идентификатор : 2
Формат : AC-3
Формат/Информация : Audio Coding 3
Коммерческое название : Dolby Digital
Идентификатор кодека : A_AC3
Продолжительность : 22 м. 57 с.
Вид битрейта : Постоянный
Битрейт : 192 Кбит/сек
Каналы : 2 канала
Channel layout : L R
Частота : 48,0 КГц
Частота кадров : 31,250 кадров/сек (1536 SPF)
Метод сжатия : С потерями
Задержка видео : -120 мс.
Размер потока : 31,5 Мбайт (4%)
Заголовок : [Original | 2.0 AC-3 Audio]
Язык : Russian
Service kind : Complete Main
Default : Да
Forced : Нет
Уважаемые пользователи!
Не забывайте оставаться на раздаче после того, как скачали торрент! Помогите скачать и другим - поддержите свободный обмен!

Если у вас НЕ получается скачать торрент файл, то используйте VPN или качайте через "Magnet ссылку"!

VPN вы можете приобрести в нашем интернет-магазине!
Размер: -//-

Стрим [01-15 из 20] (2022) WEBRip 1080p Torrent файл
Стрим [01-15 из 20] (2022) WEBRip 1080p Magnet ссылка
  • Не нравится
  • 0
  • Нравится
Категория: Наши сериалы | Добавил: TOLIAXA | Просмотров: 1 | Комментариев: 0
Уважаемый посетитель, Вы зашли на сайт как незарегистрированный пользователь.
Мы рекомендуем Вам зарегистрироваться либо войти на сайт под своим именем.
Имя:*
E-Mail:
Введите код: *
Кликните на изображение чтобы обновить код, если он неразборчив
Панель пользователя