rutor.info :: Свободный торрент трекер » Наши сериалы » Хэдшот [01-07 из 08] (2022) WEBRip 1080p
  • Не нравится
  • 0
  • Нравится
Категория: Наши сериалы | Добавил: TOLIAXA | Просмотров: 2 | Комментариев: 0

Хэдшот [01-07 из 08] (2022) WEBRip 1080p


Уважаемые пользователи!
Не забывайте оставаться на раздаче после того, как скачали торрент! Помогите скачать и другим - поддержите свободный обмен!

Если у вас НЕ получается скачать торрент файл, то используйте VPN или качайте через "Magnet ссылку"!

VPN вы можете приобрести в нашем интернет-магазине!
Размер: -//-

Хэдшот [01-07 из 08] (2022) WEBRip 1080p Torrent файл
Хэдшот [01-07 из 08] (2022) WEBRip 1080p Magnet ссылка

Хэдшот [01-07 из 08] (2022) WEBRip 1080p
⇒ Основная информация:
Информация о фильме
Название: Хэдшот
Год выхода: 2022
Жанр: Триллер, фантастика, драма
Режиссер: Владимир Битоков
В ролях: Артем Кошман, Роман Курцын, Алёна Митрошина, Иван Непомнящий, Даниял Алисултанов, Василиса Перелыгина, Полина Кутепова, Ольга Смирнова, Александр Кудин, Егор Дрозд, Даминик Валиуллин, Рената Джало, Арман Хачатрян, Дмитрий Быковский, Анастасия Грузова, Михаил Елисеев, Антон Клюев

О фильме:
Старшеклассник Денис — геймер-любитель и обычный подросток, у которого общаться с пользователями сети получается гораздо лучше, чем со сверстниками в школе. Когда ситуация становится критической, на помощь ему приходит собственный аватар из видеоигры. IIIRAM помогает герою обрести уверенность в себе, пусть даже его методы сомнительны, а советы чаще всего неэтичны. Денис aka IIIRAM получает предложение из мира профессионального киберспорта, и его жизнь резко меняется: первые деньги, новые знакомства и шанс добиться внимания девушки, о которой он раньше даже не мечтал.




Страна: Россия
Студия: Нон-стоп Продакшн
Продолжительность: 7 х ~ 00:46:00
Язык: Русский

Премьера в Росcии: 02 января 2023 года
Цифровой релиз: 02 января 2023 года
Примечание: Без рекламы
Возраст: 18+

Файл
Формат: MKV
Качество: WEBRip 1080p
Видео: MPEG-4 AVC, ~ 2600-6000 Кбит/с, 1920x1080
Аудио #01: AC3, 6 ch, 448 Кбит/с | C цензурой
Аудио #02: AC3, 6 ch, 448 Кбит/с | Без цензуры 18+
Аудио #03: E-AC3, 6 ch, 448 Кбит/с | C цензурой
Аудио #04: E-AC3, 6 ch, 448 Кбит/с | Без цензуры 18+
Субтитры: Русские (полные, SDH)
Семпл

Скриншоты
MI
Общее
Уникальный идентификатор : 320016804694756146532888815921011341444 (0xF0C0FEA3CC8F030BE01F08BD31A7B884)
Полное имя : D:Hedshot.S01.2022.WEBRip.1080pHedshot.S01.E01.2022.WEBRip.1080p.mkv
Формат : Matroska
Версия формата : Version 4
Размер файла : 2,47 Гбайт
Продолжительность : 46 м. 23 с.
Общий поток : 7 621 Кбит/сек
Название фильма : Hedshot.S01.E01.2022.WEBRip.1080p
Дата кодирования : UTC 2023-01-01 21:04:21
Программа кодирования : mkvmerge v72.0.0 ('Minuano (Six-eight)') 64-bit
Библиотека кодирования : libebml v1.4.4 + libmatroska v1.7.1
Attachments : poster.jpeg

Видео
Идентификатор : 1
Формат : AVC
Формат/Информация : Advanced Video Codec
Профиль формата : High@L4
Настройки формата : CABAC / 4 Ref Frames
Параметр CABAC формата : Да
Параметр RefFrames формата : 4 кадра
Идентификатор кодека : V_MPEG4/ISO/AVC
Продолжительность : 46 м. 23 с.
Битрейт : 6 000 Кбит/сек
Ширина : 1 920 пикселей
Высота : 1 080 пикселей
Соотношение сторон : 16:9
Режим частоты кадров : Постоянный
Частота кадров : 25,000 кадров/сек
Цветовое пространство : YUV
Субдискретизация насыщенности : 4:2:0
Битовая глубина : 8 бит
Тип развёртки : Прогрессивная
Бит/(Пиксели*Кадры) : 0.116
Размер потока : 1,89 Гбайт (76%)
Библиотека кодирования : x264 core 157
Настройки программы : cabac=1 / ref=4 / deblock=1:0:0 / analyse=0x3:0x133 / me=umh / subme=10 / psy=1 / psy_rd=1.00:0.00 / mixed_ref=1 / me_range=24 / chroma_me=1 / trellis=2 / 8x8dct=1 / cqm=0 / deadzone=21,11 / fast_pskip=1 / chroma_qp_offset=-2 / threads=34 / lookahead_threads=5 / sliced_threads=0 / nr=0 / decimate=1 / interlaced=0 / bluray_compat=0 / stitchable=1 / constrained_intra=0 / bframes=8 / b_pyramid=2 / b_adapt=2 / b_bias=0 / direct=3 / weightb=1 / open_gop=0 / weightp=2 / keyint=250 / keyint_min=25 / scenecut=40 / intra_refresh=0 / rc_lookahead=60 / rc=2pass / mbtree=1 / bitrate=6000 / ratetol=1.0 / qcomp=0.60 / qpmin=0 / qpmax=69 / qpstep=4 / cplxblur=20.0 / qblur=0.5 / vbv_maxrate=6600 / vbv_bufsize=12000 / nal_hrd=none / filler=0 / ip_ratio=1.40 / aq=1:1.00
Default : Да
Forced : Нет

Аудио #1
Идентификатор : 2
Формат : AC-3
Формат/Информация : Audio Coding 3
Коммерческое название : Dolby Digital
Идентификатор кодека : A_AC3
Продолжительность : 46 м. 23 с.
Вид битрейта : Постоянный
Битрейт : 448 Кбит/сек
Каналы : 6 каналов
Channel layout : L R C LFE Ls Rs
Частота : 48,0 КГц
Частота кадров : 31,250 кадров/сек (1536 SPF)
Метод сжатия : С потерями
Размер потока : 149 Мбайт (6%)
Заголовок : [Censor | 5.1 AC3 Audio]
Язык : Russian
Service kind : Complete Main
Default : Да
Forced : Нет

Аудио #2
Идентификатор : 3
Формат : AC-3
Формат/Информация : Audio Coding 3
Коммерческое название : Dolby Digital
Идентификатор кодека : A_AC3
Продолжительность : 46 м. 23 с.
Вид битрейта : Постоянный
Битрейт : 448 Кбит/сек
Каналы : 6 каналов
Channel layout : L R C LFE Ls Rs
Частота : 48,0 КГц
Частота кадров : 31,250 кадров/сек (1536 SPF)
Метод сжатия : С потерями
Размер потока : 149 Мбайт (6%)
Заголовок : [18+ | 5.1 AC3 Audio]
Язык : Russian
Service kind : Complete Main
Default : Нет
Forced : Нет

Аудио #3
Идентификатор : 4
Формат : E-AC-3
Формат/Информация : Enhanced AC-3
Коммерческое название : Dolby Digital Plus
Идентификатор кодека : A_EAC3
Продолжительность : 46 м. 23 с.
Вид битрейта : Постоянный
Битрейт : 448 Кбит/сек
Каналы : 6 каналов
Channel layout : L R C LFE Ls Rs
Частота : 48,0 КГц
Частота кадров : 31,250 кадров/сек (1536 SPF)
Метод сжатия : С потерями
Размер потока : 149 Мбайт (6%)
Заголовок : [Censor | 5.1 E-AC3 Audio]
Язык : Russian
Service kind : Complete Main
Default : Нет
Forced : Нет

Аудио #4
Идентификатор : 5
Формат : E-AC-3
Формат/Информация : Enhanced AC-3
Коммерческое название : Dolby Digital Plus
Идентификатор кодека : A_EAC3
Продолжительность : 46 м. 23 с.
Вид битрейта : Постоянный
Битрейт : 448 Кбит/сек
Каналы : 6 каналов
Channel layout : L R C LFE Ls Rs
Частота : 48,0 КГц
Частота кадров : 31,250 кадров/сек (1536 SPF)
Метод сжатия : С потерями
Размер потока : 149 Мбайт (6%)
Заголовок : [18+ | 5.1 E-AC3 Audio]
Язык : Russian
Service kind : Complete Main
Default : Нет
Forced : Нет

Текст #1
Идентификатор : 6
Формат : UTF-8
Идентификатор кодека : S_TEXT/UTF8
Идентификатор кодека/Информация : UTF-8 Plain Text
Продолжительность : 43 м. 57 с.
Битрейт : 81 бит/сек
Частота кадров : 0,196 кадр/сек
Count of elements : 517
Размер потока : 26,2 Кбайт (0%)
Заголовок : [Full]
Язык : Russian
Default : Нет
Forced : Нет

Текст #2
Идентификатор : 7
Формат : UTF-8
Идентификатор кодека : S_TEXT/UTF8
Идентификатор кодека/Информация : UTF-8 Plain Text
Продолжительность : 44 м. 58 с.
Битрейт : 88 бит/сек
Частота кадров : 0,216 кадр/сек
Count of elements : 582
Размер потока : 29,3 Кбайт (0%)
Заголовок : [SDH]
Язык : Russian
Default : Нет
Forced : Нет
Уважаемые пользователи!
Не забывайте оставаться на раздаче после того, как скачали торрент! Помогите скачать и другим - поддержите свободный обмен!

Если у вас НЕ получается скачать торрент файл, то используйте VPN или качайте через "Magnet ссылку"!

VPN вы можете приобрести в нашем интернет-магазине!
Размер: -//-

Хэдшот [01-07 из 08] (2022) WEBRip 1080p Torrent файл
Хэдшот [01-07 из 08] (2022) WEBRip 1080p Magnet ссылка
  • Не нравится
  • 0
  • Нравится
Категория: Наши сериалы | Добавил: TOLIAXA | Просмотров: 2 | Комментариев: 0
Уважаемый посетитель, Вы зашли на сайт как незарегистрированный пользователь.
Мы рекомендуем Вам зарегистрироваться либо войти на сайт под своим именем.
Имя:*
E-Mail:
Введите код: *
Кликните на изображение чтобы обновить код, если он неразборчив
Панель пользователя