rutor.info :: Свободный торрент трекер » Наши сериалы » Хэдшот [01-07 из 08] (2022) WEBRip-HEVC 2160p | 4K | SDR
  • Не нравится
  • 0
  • Нравится
Категория: Наши сериалы | Добавил: TOLIAXA | Просмотров: 4 | Комментариев: 0

Хэдшот [01-07 из 08] (2022) WEBRip-HEVC 2160p | 4K | SDR


Уважаемые пользователи!
Не забывайте оставаться на раздаче после того, как скачали торрент! Помогите скачать и другим - поддержите свободный обмен!

Если у вас НЕ получается скачать торрент файл, то используйте VPN или качайте через "Magnet ссылку"!

VPN вы можете приобрести в нашем интернет-магазине!
Размер: -//-

Хэдшот [01-07 из 08] (2022) WEBRip-HEVC 2160p | 4K | SDR Torrent файл
Хэдшот [01-07 из 08] (2022) WEBRip-HEVC 2160p | 4K | SDR Magnet ссылка

Хэдшот [01-07 из 08] (2022) WEBRip-HEVC 2160p | 4K | SDR
⇒ Основная информация:
Информация о фильме
Название: Хэдшот
Год выхода: 2022
Жанр: Триллер, фантастика, драма
Режиссер: Владимир Битоков
В ролях: Артем Кошман, Роман Курцын, Алёна Митрошина, Иван Непомнящий, Даниял Алисултанов, Василиса Перелыгина, Полина Кутепова, Ольга Смирнова, Александр Кудин, Егор Дрозд, Даминик Валиуллин, Рената Джало, Арман Хачатрян, Дмитрий Быковский, Анастасия Грузова, Михаил Елисеев, Антон Клюев

О фильме:
Старшеклассник Денис — геймер-любитель и обычный подросток, у которого общаться с пользователями сети получается гораздо лучше, чем со сверстниками в школе. Когда ситуация становится критической, на помощь ему приходит собственный аватар из видеоигры. IIIRAM помогает герою обрести уверенность в себе, пусть даже его методы сомнительны, а советы чаще всего неэтичны. Денис aka IIIRAM получает предложение из мира профессионального киберспорта, и его жизнь резко меняется: первые деньги, новые знакомства и шанс добиться внимания девушки, о которой он раньше даже не мечтал.




Страна: Россия
Студия: Нон-стоп Продакшн
Продолжительность: 7 х ~ 00:46:00
Язык: Русский

Премьера в Росcии: 02 января 2023 года
Цифровой релиз: 02 января 2023 года
Примечание: Без рекламы
Возраст: 18+

Файл
Формат: MKV
Качество: WEBRip-HEVC 2160p
Видео: MPEG-H HEVC SDR, ~ 10.1-11.4 Мбит/с, 3840x2160, 8 бит
Аудио #01: E-AC3, 6 ch, 448 Кбит/с | C цензурой
Аудио #02: E-AC3, 6 ch, 448 Кбит/с | Без цензуры 18+
Субтитры: Русские (полные, SDH)
Семпл

Скриншоты
MI
Общее
Уникальный идентификатор : 189637541688234863456481792533347538990 (0x8EAADCACCD146FB17A449D6D371D982E)
Полное имя : D:Hedshot.S01.2022.WEBRip.2160p.SDRHedshot.S01.E01.2022.WEBRip.2160p.SDR.mkv
Формат : Matroska
Версия формата : Version 4
Размер файла : 3,99 Гбайт
Продолжительность : 46 м. 23 с.
Общий поток : 12,3 Мбит/сек
Название фильма : Hedshot.S01.E01.2022.WEBRip.2160p.SDR
Дата кодирования : UTC 2023-01-01 21:12:13
Программа кодирования : mkvmerge v72.0.0 ('Minuano (Six-eight)') 64-bit
Библиотека кодирования : libebml v1.4.4 + libmatroska v1.7.1
Attachments : poster.jpeg

Видео
Идентификатор : 1
Формат : HEVC
Формат/Информация : High Efficiency Video Coding
Профиль формата : Main@L5@High
Идентификатор кодека : V_MPEGH/ISO/HEVC
Продолжительность : 46 м. 23 с.
Битрейт : 11,4 Мбит/сек
Ширина : 3 840 пикселей
Высота : 2 160 пикселей
Соотношение сторон : 16:9
Режим частоты кадров : Постоянный
Частота кадров : 25,000 кадров/сек
Цветовое пространство : YUV
Субдискретизация насыщенности : 4:2:0
Битовая глубина : 8 бит
Бит/(Пиксели*Кадры) : 0.055
Размер потока : 3,69 Гбайт (93%)
Библиотека кодирования : x265 0.0:[Linux][GCC 7.5.0][64 bit] 8bit+10bit+12bit
Настройки программы : cpuid=1111039 / frame-threads=6 / wpp / no-pmode / no-pme / no-psnr / no-ssim / log-level=2 / input-csp=1 / input-res=3840x2160 / interlace=0 / total-frames=0 / level-idc=0 / high-tier=1 / uhd-bd=0 / ref=2 / no-allow-non-conformance / no-repeat-headers / annexb / no-aud / no-hrd / info / hash=0 / no-temporal-layers / open-gop / min-keyint=100 / keyint=100 / gop-lookahead=0 / bframes=4 / b-adapt=2 / b-pyramid / bframe-bias=0 / rc-lookahead=25 / lookahead-slices=4 / scenecut=40 / radl=0 / no-splice / no-intra-refresh / ctu=64 / min-cu-size=8 / rect / no-amp / max-tu-size=32 / tu-inter-depth=1 / tu-intra-depth=1 / limit-tu=0 / rdoq-level=2 / dynamic-rd=0.00 / no-ssim-rd / signhide / no-tskip / nr-intra=0 / nr-inter=0 / no-constrained-intra / strong-intra-smoothing / max-merge=3 / limit-refs=3 / limit-modes / me=3 / subme=3 / merange=57 / temporal-mvp / weightp / no-weightb / no-analyze-src-pics / deblock=0:0 / sao / no-sao-non-deblock / rd=4 / no-early-skip / rskip / no-fast-intra / no-tskip-fast / no-cu-lossless / no-b-intra / no-splitrd-skip / rdpenalty=0 / psy-rd=2.00 / psy-rdoq=1.00 / no-rd-refine / no-lossless / cbqpoffs=0 / crqpoffs=0 / rc=abr / bitrate=11600 / qcomp=0.60 / qpstep=4 / stats-write=0 / stats-read=2 / cplxblur=20.0 / qblur=0.5 / vbv-maxrate=17400 / vbv-bufsize=46400 / vbv-init=0.8 / ipratio=1.40 / pbratio=1.30 / aq-mode=2 / aq-strength=1.00 / cutree / zone-count=0 / no-strict-cbr / qg-size=32 / no-rc-grain / qpmax=69 / qpmin=0 / no-const-vbv / sar=1 / overscan=0 / videoformat=5 / range=0 / colorprim=2 / transfer=2 / colormatrix=2 / chromaloc=0 / display-window=0cll=0,0 / min-luma=0 / max-luma=255 / log2-max-poc-lsb=8 / vui-timing-info / vui-hrd-info / slices=1 / no-opt-qp-pps / no-opt-ref-list-length-pps / no-multi-pass-opt-rps / scenecut-bias=0.05 / no-opt-cu-delta-qp / no-aq-motion / no-hdr / no-hdr-opt / no-dhdr10-opt / no-idr-recovery-sei / analysis-reuse-level=5 / scale-factor=0 / refine-intra=0 / refine-inter=0 / refine-mv=0 / refine-ctu-distortion=0 / no-limit-sao / ctu-info=0 / no-lowpass-dct / refine-analysis-type=0 / copy-pic=1 / max-ausize-factor=1.0 / no-dynamic-refine / no-single-sei / no-hevc-aq / no-svt / no-field / qp-adaptation-range=1.00
Default : Да
Forced : Нет
Цветовой диапазон : Limited

Аудио #1
Идентификатор : 2
Формат : E-AC-3
Формат/Информация : Enhanced AC-3
Коммерческое название : Dolby Digital Plus
Идентификатор кодека : A_EAC3
Продолжительность : 46 м. 23 с.
Вид битрейта : Постоянный
Битрейт : 448 Кбит/сек
Каналы : 6 каналов
Channel layout : L R C LFE Ls Rs
Частота : 48,0 КГц
Частота кадров : 31,250 кадров/сек (1536 SPF)
Метод сжатия : С потерями
Размер потока : 149 Мбайт (4%)
Заголовок : [Censor | 5.1 E-AC3 Audio]
Язык : Russian
Service kind : Complete Main
Default : Да
Forced : Нет

Аудио #2
Идентификатор : 3
Формат : E-AC-3
Формат/Информация : Enhanced AC-3
Коммерческое название : Dolby Digital Plus
Идентификатор кодека : A_EAC3
Продолжительность : 46 м. 23 с.
Вид битрейта : Постоянный
Битрейт : 448 Кбит/сек
Каналы : 6 каналов
Channel layout : L R C LFE Ls Rs
Частота : 48,0 КГц
Частота кадров : 31,250 кадров/сек (1536 SPF)
Метод сжатия : С потерями
Размер потока : 149 Мбайт (4%)
Заголовок : [18+ | 5.1 E-AC3 Audio]
Язык : Russian
Service kind : Complete Main
Default : Нет
Forced : Нет

Текст #1
Идентификатор : 4
Формат : UTF-8
Идентификатор кодека : S_TEXT/UTF8
Идентификатор кодека/Информация : UTF-8 Plain Text
Продолжительность : 43 м. 57 с.
Битрейт : 81 бит/сек
Частота кадров : 0,196 кадр/сек
Count of elements : 517
Размер потока : 26,2 Кбайт (0%)
Заголовок : [Full]
Язык : Russian
Default : Нет
Forced : Нет

Текст #2
Идентификатор : 5
Формат : UTF-8
Идентификатор кодека : S_TEXT/UTF8
Идентификатор кодека/Информация : UTF-8 Plain Text
Продолжительность : 44 м. 58 с.
Битрейт : 88 бит/сек
Частота кадров : 0,216 кадр/сек
Count of elements : 582
Размер потока : 29,3 Кбайт (0%)
Заголовок : [SDH]
Язык : Russian
Default : Нет
Forced : Нет
Уважаемые пользователи!
Не забывайте оставаться на раздаче после того, как скачали торрент! Помогите скачать и другим - поддержите свободный обмен!

Если у вас НЕ получается скачать торрент файл, то используйте VPN или качайте через "Magnet ссылку"!

VPN вы можете приобрести в нашем интернет-магазине!
Размер: -//-

Хэдшот [01-07 из 08] (2022) WEBRip-HEVC 2160p | 4K | SDR Torrent файл
Хэдшот [01-07 из 08] (2022) WEBRip-HEVC 2160p | 4K | SDR Magnet ссылка
  • Не нравится
  • 0
  • Нравится
Категория: Наши сериалы | Добавил: TOLIAXA | Просмотров: 4 | Комментариев: 0
Уважаемый посетитель, Вы зашли на сайт как незарегистрированный пользователь.
Мы рекомендуем Вам зарегистрироваться либо войти на сайт под своим именем.
Имя:*
E-Mail:
Введите код: *
Кликните на изображение чтобы обновить код, если он неразборчив
Панель пользователя