rutor.info :: Свободный торрент трекер » Наши сериалы » Тест на беременность [04х01-06 из 08] (2022) WEBRip 1080p
  • Не нравится
  • 0
  • Нравится
Категория: Наши сериалы | Добавил: TOLIAXA | Просмотров: 2 | Комментариев: 0

Тест на беременность [04х01-06 из 08] (2022) WEBRip 1080p


Уважаемые пользователи!
Не забывайте оставаться на раздаче после того, как скачали торрент! Помогите скачать и другим - поддержите свободный обмен!

Если у вас НЕ получается скачать торрент файл, то используйте VPN или качайте через "Magnet ссылку"!

VPN вы можете приобрести в нашем интернет-магазине!
Размер: -//-

Тест на беременность [04х01-06 из 08] (2022) WEBRip 1080p Torrent файл
Тест на беременность [04х01-06 из 08] (2022) WEBRip 1080p Magnet ссылка

Тест на беременность [04х01-06 из 08] (2022) WEBRip 1080p
⇒ Основная информация:
Информация о фильме
Название: Тест на беременность
Год выхода: 2022
Жанр: Мелодрама
Режиссёр: Николай Хомерики
В ролях: Светлана Иванова, Кристина Орбакайте,Евгений Пронин, Кирилл Варакса, Александр Нестеров, Татьяна Рассказова, Стелла Ильницкая, Анна Каменкова, Сергей Мигицко, Анна Пескова, Инна Степанова, Серафима Огарёва, Агния Кузнецова, Кирилл Гребенщиков, Юлия Акимова, Андрей Ургант, Алина Виноградова, Роман Ёлкин, Алиса Гончаренко, Николай Ткаченко, Анна Киселёва, Павел Кузьмин, Лянка Грыу, Александр Яцко, Марго Адаева, Андрей Карпиловский, Светлана Корчагина, Дмитрий Поднозов, Наталья Рожкова, Андрей Полищук, Сергей Комаров, Михаил Шиманский

О фильме:
В личной жизни врач-акушер Наталья Бахметьева пережила множество разочарований и непростых отношений с мужчинами, вплоть до предательства. Предстоит узнать, можно ли найти гармонию между служением любимому делу и любовью, не потеряв при этом последний шанс на счастье.




Страна: Россия
Студия: МТС Медиа, Всемирные Русские Студии
Продолжительность: 6 х ~ 00:45:00
Язык: Русский

Премьера в РФ: 04 января 2023 года
Цифровой релиз: 04 января 2023 года
Примечание: Без рекламы
Возраст: 16+

Файл
Формат: MKV
Качество: WEBRip 1080p
Видео: MPEG-4 AVC, ~ 6144 Кбит/с, 1920x1080
Звук: AC3, 2 ch, 192 Кбит/с
Субтитры: Отсутствуют
Семпл

Скриншоты
MI
Общее
Уникальный идентификатор : 76486301926936755463802682022719492885 (0x398AB9D6005F5DCB57A88BD467859315)
Полное имя : C:Test.na.beremennost.S04.2022.WEBRip.1080pTest.na.beremennost.S04.E01.2022.WEBRip.1080p.mkv
Формат : Matroska
Версия формата : Version 4
Размер файла : 2,05 Гбайт
Продолжительность : 46 м. 41 с.
Режим общего битрейта : Постоянный
Общий поток : 6 296 Кбит/сек
Название фильма : Test.na.beremennost.S04.E01.2022.WEBRip.1080p
Дата кодирования : UTC 2023-01-03 21:09:09
Программа кодирования : mkvmerge v72.0.0 ('Minuano (Six-eight)') 64-bit
Библиотека кодирования : libebml v1.4.4 + libmatroska v1.7.1
Attachments : poster.jpg

Видео
Идентификатор : 1
Формат : AVC
Формат/Информация : Advanced Video Codec
Профиль формата : Baseline@L4
Настройки формата : 2 Ref Frames
Параметр CABAC формата : Нет
Параметр RefFrames формата : 2 кадра
Параметр GOP формата : M=1, N=25
Идентификатор кодека : V_MPEG4/ISO/AVC
Продолжительность : 46 м. 41 с.
Вид битрейта : Постоянный
Битрейт : 6 144 Кбит/сек
Ширина : 1 920 пикселей
Высота : 1 080 пикселей
Соотношение сторон : 16:9
Режим частоты кадров : Постоянный
Частота кадров : 25,000 кадров/сек
Цветовое пространство : YUV
Субдискретизация насыщенности : 4:2:0
Битовая глубина : 8 бит
Тип развёртки : Прогрессивная
Бит/(Пиксели*Кадры) : 0.119
Размер потока : 1,99 Гбайт (97%)
Default : Да
Forced : Нет

Аудио
Идентификатор : 2
Формат : AC-3
Формат/Информация : Audio Coding 3
Коммерческое название : Dolby Digital
Идентификатор кодека : A_AC3
Продолжительность : 46 м. 41 с.
Вид битрейта : Постоянный
Битрейт : 192 Кбит/сек
Каналы : 2 канала
Channel layout : L R
Частота : 48,0 КГц
Частота кадров : 31,250 кадров/сек (1536 SPF)
Метод сжатия : С потерями
Размер потока : 64,1 Мбайт (3%)
Заголовок : [Original | 2.0 AC-3 Audio]
Язык : Russian
Service kind : Complete Main
Default : Да
Forced : Нет
Уважаемые пользователи!
Не забывайте оставаться на раздаче после того, как скачали торрент! Помогите скачать и другим - поддержите свободный обмен!

Если у вас НЕ получается скачать торрент файл, то используйте VPN или качайте через "Magnet ссылку"!

VPN вы можете приобрести в нашем интернет-магазине!
Размер: -//-

Тест на беременность [04х01-06 из 08] (2022) WEBRip 1080p Torrent файл
Тест на беременность [04х01-06 из 08] (2022) WEBRip 1080p Magnet ссылка
  • Не нравится
  • 0
  • Нравится
Категория: Наши сериалы | Добавил: TOLIAXA | Просмотров: 2 | Комментариев: 0
Уважаемый посетитель, Вы зашли на сайт как незарегистрированный пользователь.
Мы рекомендуем Вам зарегистрироваться либо войти на сайт под своим именем.
Имя:*
E-Mail:
Введите код: *
Кликните на изображение чтобы обновить код, если он неразборчив
Панель пользователя