rutor.info :: Свободный торрент трекер » Наши сериалы » Морские дьяволы. Дальние рубежи [01-12 из 24] (2021-2022) WEBRip 1080p от ExKinoRay
  • Не нравится
  • 0
  • Нравится
Категория: Наши сериалы | Добавил: TOLIAXA | Просмотров: 0 | Комментариев: 0

Морские дьяволы. Дальние рубежи [01-12 из 24] (2021-2022) WEBRip 1080p от ExKinoRay


Уважаемые пользователи!
Не забывайте оставаться на раздаче после того, как скачали торрент! Помогите скачать и другим - поддержите свободный обмен!

Если у вас НЕ получается скачать торрент файл, то используйте VPN или качайте через "Magnet ссылку"!

VPN вы можете приобрести в нашем интернет-магазине!
Размер: -//-

Морские дьяволы. Дальние рубежи [01-12 из 24] (2021-2022) WEBRip 1080p от ExKinoRay Torrent файл
Морские дьяволы. Дальние рубежи [01-12 из 24] (2021-2022) WEBRip 1080p от ExKinoRay Magnet ссылка

Морские дьяволы. Дальние рубежи [01-12 из 24] (2021-2022) WEBRip 1080p от ExKinoRay
⇒ Основная информация:

Информация о фильме
Название: Морские дьяволы. Дальние рубежи
Год выхода: 2021-2022
Жанр: Боевик, приключения, детектив, криминал
Режиссер: Михаил Баркан
В ролях: Олег Чернов, Дарья Юргенс, Иван Паршин, Антон Гуляев, Игорь Григорьев (III), Дарья Пашкова, Борис Чистяков, Олег Пак, Никандр Кирьянов, Александр Воробьёв (IV), Елена Купрашевич, Константин Снегов, Олег Жилин, Захар Черезов, Юлия Кубина, Андрей Шаповал, Вячеслав Григорьев, Михаил Клюкин, Родион Рудаков


О фильме:
Новый сезон «Морские дьяволы. Дальние рубежи» - это продолжение популярной многосерийной франшизы «Морские дьяволы» с новыми героями отрядом «Акула» и героями предыдущих сезонов. Главная особенность нового сезона – это противостояние нашего Российского КТЦ(Контртеррористического Центра) международному Информационно-исследовательскому центру (ИАЦ) «Пандора». Статус ИАЦ - лишь прикрытие, под которым некие влиятельные западные спецслужбы ведут борьбу против России в информационной, политической, экономической и международных сферах. По сути «Пандора» - прекрасно оснащённый центр планирования диверсий против России. КТЦ в этой борьбе выступает достойнейшим противником, владеющим всеми современными технологиями борьбы – от информационных до оружейных. В новом сезоне КТЦ не только отражает атаки со стороны «Пандоры», но и работает на опережение. Само КТЦ по сравнению с прошлыми сезонами значительно изменилось. Это теперь не стационарное помещение, а мобильный штаб, который за считанные минуты может быть развёрнут в самолёте, в поезде, в морском судне, в микроавтобусе, в трейлере, в чистом поле – словом, там, где того требует текущая ситуация. В составе КТЦ легендарные Батя, Бизон, Пригов и иногда Багира, которая помогает нашим героям в самых тяжёлых ситуациях, находясь на выполнении секретного задания, сюжет которого раскроется в финальном фильме сезона. Главное отличие нового сезона от предыдущих – это то, что перед Бизоном поставлена задача переформировать отряд «НЕРП» в отряд «АКУЛА», а также укомплектовать его новыми бойцами, что Бизон с успехом выполняет. На этот раз спецподразделению «АКУЛА» предстоит выполнение боевых задач, как на дальних рубежах нашей страны, так и за ее пределами.


Страна: Россия
Студия: Кинокомпания "Гамма-Продакшн"
Продолжительность: 12 x ~ 00:48:39
Язык: Русский

Файл
Кодек: MPEG-4 AVC
Качество: WEBRip 1080p
Видео: 1920х1080 (16:9), 25 fps, AVC MPEG-4 (x264), High@L4.1 ~ 6000 kbps avg, 0.153 bit/pixel
Аудио: AC3, 2 ch, 192 Кбит/с
Субтитры: Русские



МИ

General
Unique ID : 212533414367782998448894909396535669424 (0x9FE4725A5DB93197A9CF6239876AF2B0)
Complete name : G:Morskie.d'yavoly.Dal'nie.rubezhi.2021.WEB-DL.(1080p).ExKinoRayMorskie.d'yavoly.Dal'nie.rubezhi.E01.2021.WEB-DL.(1080p).ExKinoRay.mkv
Format : Matroska
Format version : Version 4 / Version 2
File size : 2.07 GiB
Duration : 48 min 27 s
Overall bit rate : 6 123 kb/s
Encoded date : UTC 2021-11-14 14:45:36
Writing application : mkvmerge v6.9.1 ('Blue Panther') 64bit built on Apr 18 2014 18:23:38
Writing library : libebml v1.3.0 + libmatroska v1.4.1

Video
ID : 1
Format : AVC
Format/Info : Advanced Video Codec
Format profile : High@L4.1
Format settings : 2 Ref Frames
Format settings, CABAC : No
Format settings, RefFrames : 2 frames
Codec ID : V_MPEG4/ISO/AVC
Duration : 48 min 27 s
Bit rate mode : Constant
Bit rate : 6 000 kb/s
Width : 1 920 pixels
Height : 1 080 pixels
Display aspect ratio : 16:9
Frame rate mode : Constant
Frame rate : 25.000 FPS
Standard : PAL
Color space : YUV
Chroma subsampling : 4:2:0
Bit depth : 8 bits
Scan type : Progressive
Bits/(Pixel*Frame) : 0.116
Stream size : 1.97 GiB (95%)
Default : Yes
Forced : No
Color range : Limited
Color primaries : BT.709
Transfer characteristics : BT.709
Matrix coefficients : BT.709

Audio
ID : 2
Format : AC-3
Format/Info : Audio Coding 3
Codec ID : A_AC3
Duration : 48 min 27 s
Bit rate mode : Constant
Bit rate : 192 kb/s
Channel(s) : 2 channels
Channel positions : Front: L R
Sampling rate : 48.0 kHz
Frame rate : 31.250 FPS (1536 SPF)
Bit depth : 16 bits
Compression mode : Lossy
Stream size : 66.6 MiB (3%)
Language : Russian
Service kind : Complete Main
Default : Yes
Forced : No

Text
ID : 3
Format : UTF-8
Codec ID : S_TEXT/UTF8
Codec ID/Info : UTF-8 Plain Text
Language : Russian
Default : No
Forced : No




Скриншоты





Релиз от:
Уважаемые пользователи!
Не забывайте оставаться на раздаче после того, как скачали торрент! Помогите скачать и другим - поддержите свободный обмен!

Если у вас НЕ получается скачать торрент файл, то используйте VPN или качайте через "Magnet ссылку"!

VPN вы можете приобрести в нашем интернет-магазине!
Размер: -//-

Морские дьяволы. Дальние рубежи [01-12 из 24] (2021-2022) WEBRip 1080p от ExKinoRay Torrent файл
Морские дьяволы. Дальние рубежи [01-12 из 24] (2021-2022) WEBRip 1080p от ExKinoRay Magnet ссылка
  • Не нравится
  • 0
  • Нравится
Категория: Наши сериалы | Добавил: TOLIAXA | Просмотров: 0 | Комментариев: 0
Уважаемый посетитель, Вы зашли на сайт как незарегистрированный пользователь.
Мы рекомендуем Вам зарегистрироваться либо войти на сайт под своим именем.
Имя:*
E-Mail:
Введите код: *
Кликните на изображение чтобы обновить код, если он неразборчив
Панель пользователя