rutor.info :: Свободный торрент трекер » Мультипликация » Ну, погоди! Каникулы [01-24 из 26] (2021) WEB-DL 1080p
  • Не нравится
  • 0
  • Нравится
Категория: Мультипликация | Добавил: TOLIAXA | Просмотров: 1 | Комментариев: 0

Ну, погоди! Каникулы [01-24 из 26] (2021) WEB-DL 1080p


Уважаемые пользователи!
Не забывайте оставаться на раздаче после того, как скачали торрент! Помогите скачать и другим - поддержите свободный обмен!

Если у вас НЕ получается скачать торрент файл, то используйте VPN или качайте через "Magnet ссылку"!

VPN вы можете приобрести в нашем интернет-магазине!
Размер: 6.08 GB (6531622870 Bytes)

Ну, погоди! Каникулы [01-24 из 26] (2021) WEB-DL 1080p Torrent файл
Ну, погоди! Каникулы [01-24 из 26] (2021) WEB-DL 1080p Magnet ссылка

Ну, погоди! Каникулы [01-24 из 26] (2021) WEB-DL 1080p
⇒ Основная информация:


Информация о фильме
Название: Ну, погоди! Каникулы
Год выпуска: 2021
Жанр: Мультсериал, детский, семейный
Режиссер: Андрей Жидков
В ролях: Гарик Харламов, Дмитрий Хрусталёв, Эван Котляров, Мария Киселёва, Максим Галкин, Антон Комолов, Никита Прозоровский, Олег Куценко, Дмитрий Филимонов, Елена Финогеева, Лариса Гузеева, Александр Груздев

О фильме:
Любителю активного отдыха Зайцу вновь не удаётся насладиться каникулами в полной мере, потому что хулиган и пройдоха Волк постоянно вертится поблизости. Между агрессивно настроенным Волком и миролюбивым Зайцем постоянно вспыхивают разного рода конфликты – от борьбы за внимание очаровательной Косули Ули, до соперничества за главный приз в велогонках.



Выпущено: Россия
Студия: Союзмультфильм
Продолжительность: 24 х ~ 00:07:00
Перевод: Не требуется

Файл
Качество: WEB-DL 1080p
Формат: MKV
Видео: 1920x1080 , 25 fps, x264@L4, ~5000 kbps avg, 0.096 bit/pixel
Аудио: 48 kHz, AAC, 2ch, ~192 kbps avg

Список серий
01. На чемоданах
02. Лунапарк
03. Быстрее, выше, сильнее
04. Пляж
05. Лыжники и сноубордисты
06. Новый год
07. Дельтапланы
08. Неуловимый волк
09. Выходной
10. Карта сокровищ
11. Фокусы
12. Спортзал
13. Поход
14. Самовар
15. Подмена
16. Перехват
17. Снежки
18. Честная игра
19. Страшилки
20. Стоп! Снято!
21. Вызов
22. Коньки и санки
23. Лунатизм
24. Ледяная слава
M/I
Общее
Уникальный идентификатор : 182444170249171232905246586478457811387 (0x89417814B88E54048749FFC3B36871BB)
Полное имя : D:Ну, погоди. Каникулы.2021.WEB-DL 1080p1. На чемоданах.mkv
Формат : Matroska
Версия формата : Version 4
Размер файла : 258 Мбайт
Продолжительность : 7 м. 0 с.
Общий поток : 5 151 Кбит/сек
Дата кодирования : UTC 2021-12-18 16:11:47
Программа кодирования : mkvmerge v63.0.0 ('Everything') 64-bit
Библиотека кодирования : libebml v1.4.2 + libmatroska v1.6.4

Видео
Идентификатор : 1
Формат : AVC
Формат/Информация : Advanced Video Codec
Профиль формата : High@L4
Настройки формата : CABAC / 3 Ref Frames
Параметр CABAC формата : Да
Параметр RefFrames формата : 3 кадра
Идентификатор кодека : V_MPEG4/ISO/AVC
Продолжительность : 7 м. 0 с.
Битрейт : 5 000 Кбит/сек
Ширина : 1 920 пикселей
Высота : 1 080 пикселей
Соотношение сторон : 16:9
Режим частоты кадров : Постоянный
Частота кадров : 25,000 кадров/сек
Цветовое пространство : YUV
Субдискретизация насыщенности : 4:2:0
Битовая глубина : 8 бит
Тип развёртки : Прогрессивная
Бит/(Пиксели*Кадры) : 0.096
Размер потока : 248 Мбайт (96%)
Заголовок : ru
Библиотека кодирования : x264 core 161 r3048 b86ae3c
Настройки программы : cabac=1 / ref=4 / deblock=1:1:1 / analyse=0x3:0x133 / me=umh / subme=9 / psy=1 / psy_rd=0.40:1.00 / mixed_ref=1 / me_range=24 / chroma_me=1 / trellis=0 / 8x8dct=1 / cqm=0 / deadzone=21,11 / fast_pskip=1 / chroma_qp_offset=-2 / threads=34 / lookahead_threads=2 / sliced_threads=0 / nr=0 / decimate=1 / interlaced=0 / bluray_compat=0 / constrained_intra=0 / bframes=8 / b_pyramid=1 / b_adapt=1 / b_bias=0 / direct=3 / weightb=1 / open_gop=0 / weightp=2 / keyint=75 / keyint_min=38 / scenecut=0 / intra_refresh=0 / rc_lookahead=30 / rc=2pass / mbtree=1 / bitrate=5000 / ratetol=1.0 / qcomp=0.80 / qpmin=1 / qpmax=69 / qpstep=4 / cplxblur=20.0 / qblur=0.5 / vbv_maxrate=7500 / vbv_bufsize=10000 / nal_hrd=none / filler=0 / ip_ratio=1.40 / aq=1:0.60
Язык : Russian
Default : Да
Forced : Нет

Аудио
Идентификатор : 2
Формат : AAC LC
Формат/Информация : Advanced Audio Codec Low Complexity
Идентификатор кодека : A_AAC-2
Продолжительность : 6 м. 59 с.
Битрейт : 192 Кбит/сек
Каналы : 2 канала
Channel layout : L R
Частота : 48,0 КГц
Частота кадров : 46,875 кадров/сек (1024 SPF)
Метод сжатия : С потерями
Размер потока : 9,61 Мбайт (4%)
Заголовок : ru
Язык : Russian
Default : Да
Forced : Нет
Скриншоты
Уважаемые пользователи!
Не забывайте оставаться на раздаче после того, как скачали торрент! Помогите скачать и другим - поддержите свободный обмен!

Если у вас НЕ получается скачать торрент файл, то используйте VPN или качайте через "Magnet ссылку"!

VPN вы можете приобрести в нашем интернет-магазине!
Размер: 6.08 GB (6531622870 Bytes)

Ну, погоди! Каникулы [01-24 из 26] (2021) WEB-DL 1080p Torrent файл
Ну, погоди! Каникулы [01-24 из 26] (2021) WEB-DL 1080p Magnet ссылка
  • Не нравится
  • 0
  • Нравится
Категория: Мультипликация | Добавил: TOLIAXA | Просмотров: 1 | Комментариев: 0
Уважаемый посетитель, Вы зашли на сайт как незарегистрированный пользователь.
Мы рекомендуем Вам зарегистрироваться либо войти на сайт под своим именем.
Имя:*
E-Mail:
Введите код: *
Кликните на изображение чтобы обновить код, если он неразборчив
Панель пользователя