rutor.info :: Свободный торрент трекер » Аниме » Подсолнух! / Химавари!! / Himawari!! [S02] (2007) DVDRip-AVC | L1
  • Не нравится
  • 0
  • Нравится
Категория: Аниме | Добавил: TOLIAXA | Просмотров: 0 | Комментариев: 0

Подсолнух! / Химавари!! / Himawari!! [S02] (2007) DVDRip-AVC | L1


Уважаемые пользователи!
Не забывайте оставаться на раздаче после того, как скачали торрент! Помогите скачать и другим - поддержите свободный обмен!

Если у вас НЕ получается скачать торрент файл, то используйте VPN или качайте через "Magnet ссылку"!

VPN вы можете приобрести в нашем интернет-магазине!
Размер: 5.20 GB (5579305201 Bytes)

Подсолнух! / Химавари!! / Himawari!! [S02] (2007) DVDRip-AVC | L1 Torrent файл
Подсолнух! / Химавари!! / Himawari!! [S02] (2007) DVDRip-AVC | L1 Magnet ссылка

Подсолнух! / Химавари!! / Himawari!! [S02] (2007) DVDRip-AVC | L1
⇒ Основная информация:
Информация о фильме
Название: Подсолнух! [ТВ-2] / Химавари!!
Оригинальное название: Himawari!!
Английское название: Himawari, Too!
Год выхода: 2007
Жанр: Приключения, комедия, боевые искусства
Режиссер: Кагэяма Сигэнори
Страна: Япония
Студия: Arms
Продолжительность: 13 x ~ 00:25:00

Описание:
Во втором сезоне продолжатся бесшабашные приключения Химавари Хинаты, её одноклассниц-ниндзя и их учителя Хаято Марикодзи. Отчего-то в деревне Тумана взрывом была уничтожена мужская школа, а все её ученики таинственным образом исчезли. Затем последовали нападения странных модифицированных ниндзя. Какова цель этих нападений, кто за ними стоит, куда пропали ученики, - всё это предстоит выяснить героиням сериала вместе с их учителем.

Озвучивание:
Любительское (одноголосое, закадровое) Akikomi
Любительское (одноголосое, закадровое) Goterig

Субтитры: Русские, английские

Файл
Кодек: x264
Качество: DVDRip-AVC 480p | Рип: Exiled-Destiny
Видео: AVC/H264, 720х480 (853х480), ~1620 kbps, 29.970 fps, vfr
Аудио 1: rus, AAC LC, 44.1 khz, 2.0 ch, 144 kbps | Akikomi
Аудио 2: rus, MP3, 44.1 khz, 2.0 ch, 256 kbps | Goterig
Аудио 3: rus, AC3, 48.0 khz, 2.0 ch, 224 kbps | Original

Совет
В данном рипе используется анаморфированное видео. Поэтому, чтобы при просмотре субтитры не растягивались по горизонтали, следует в DirectVobSub (или в XySubFilter) на вкладке More для параметра Renderer Layout Options выбрать Customise (оставив H: 1280, V: 720).

Порядок просмотра:
#1 Подсолнух! [ТВ-1] - ТВ (13 эп.), начало цикла, 2006
#2 Подсолнух! [ТВ-2] - ТВ (13 эп.), продолжение, 2007

Скриншоты

MediaInfo

General
Unique ID : 62440135649587547354581810735524864144 (0x2EF9885EE3F7F7CF31D168E0449FE090)
Complete name : 01. Враг ниндзя - другой ниндзя.mkv
Format : Matroska
Format version : Version 4
File size : 409 MiB
Duration : 25 min 41 s
Overall bit rate : 2 224 kb/s
Encoded date : UTC 2023-01-06 19:27:14
Writing application : mkvmerge v51.0.0 ('I Wish') 64-bit
Writing library : libebml v1.4.0 + libmatroska v1.6.2

Video
ID : 1
Format : AVC
Format/Info : Advanced Video Codec
Format profile : High@L3
Format settings : CABAC / 6 Ref Frames
Format settings, CABAC : Yes
Format settings, Reference fra : 6 frames
Codec ID : V_MPEG4/ISO/AVC
Duration : 25 min 41 s
Bit rate : 1 620 kb/s
Nominal bit rate : 1 846 kb/s
Width : 720 pixels
Height : 480 pixels
Display aspect ratio : 16:9
Original display aspect ratio : 3:2
Frame rate mode : Variable
Frame rate : 26.387 FPS
Original frame rate : 29.970 (30000/1001) FPS
Color space : YUV
Chroma subsampling : 4:2:0
Bit depth : 8 bits
Scan type : Progressive
Bits/(Pixel*Frame) : 0.178
Stream size : 298 MiB (73%)
Writing library : x264 core 116 r2074 2641b9e
Encoding settings : cabac=1 / ref=6 / deblock=1:1:1 / analyse=0x3:0x133 / me=umh / subme=7 / psy=1 / psy_rd=0.40:0.00 / mixed_ref=1 / me_range=16 / chroma_me=1 / trellis=1 / 8x8dct=1 / cqm=2 / deadzone=21,11 / fast_pskip=1 / chroma_qp_offset=-2 / threads=3 / sliced_threads=0 / nr=0 / decimate=1 / interlaced=0 / bluray_compat=0 / constrained_intra=0 / bframes=5 / b_pyramid=0 / b_adapt=1 / b_bias=0 / direct=3 / weightb=1 / open_gop=0 / weightp=2 / keyint=250 / keyint_min=25 / scenecut=40 / intra_refresh=0 / rc_lookahead=40 / rc=2pass / mbtree=1 / bitrate=1846 / ratetol=1.0 / qcomp=0.60 / qpmin=10 / qpmax=51 / qpstep=4 / cplxblur=20.0 / qblur=0.5 / ip_ratio=1.40 / aq=1:0.60
Language : Japanese
Default : Yes
Forced : No

Audio #1
ID : 2
Format : AAC LC
Format/Info : Advanced Audio Codec Low Complexity
Codec ID : A_AAC-2
Duration : 24 min 39 s
Bit rate : 144 kb/s
Channel(s) : 2 channels
Channel layout : L R
Sampling rate : 44.1 kHz
Frame rate : 43.066 FPS (1024 SPF)
Compression mode : Lossy
Delay relative to video : 230 ms
Stream size : 25.5 MiB (6%)
Title : Akikomi (пер. Sashamoon и Kitsune)
Language : Russian
Default : Yes
Forced : No

Audio #2
ID : 3
Format : MPEG Audio
Format version : Version 1
Format profile : Layer 3
Codec ID : A_MPEG/L3
Codec ID/Hint : MP3
Duration : 24 min 40 s
Bit rate mode : Constant
Bit rate : 256 kb/s
Channel(s) : 2 channels
Sampling rate : 44.1 kHz
Frame rate : 38.281 FPS (1152 SPF)
Compression mode : Lossy
Delay relative to video : 310 ms
Stream size : 45.2 MiB (11%)
Title : Goterig (пер. Sashamoon и Kitsune)
Language : Russian
Default : No
Forced : No

Audio #3
ID : 4
Format : AC-3
Format/Info : Audio Coding 3
Commercial name : Dolby Digital
Codec ID : A_AC3
Duration : 24 min 40 s
Bit rate mode : Constant
Bit rate : 224 kb/s
Channel(s) : 2 channels
Channel layout : L R
Sampling rate : 48.0 kHz
Frame rate : 31.250 FPS (1536 SPF)
Compression mode : Lossy
Delay relative to video : 30 ms
Stream size : 39.5 MiB (10%)
Title : Original
Language : Japanese
Service kind : Complete Main
Default : No
Forced : No

Menu
00:00:00.000 : ru:Пролог
00:00:56.557 : ru:Опенинг
00:02:26.513 : ru:Часть А
00:10:09.526 : ru:Часть В
00:23:00.464 : ru:Эндинг
00:24:10.492 : ru:В следующей серии
00:24:40.564 : ru:Титры

Уважаемые пользователи!
Не забывайте оставаться на раздаче после того, как скачали торрент! Помогите скачать и другим - поддержите свободный обмен!

Если у вас НЕ получается скачать торрент файл, то используйте VPN или качайте через "Magnet ссылку"!

VPN вы можете приобрести в нашем интернет-магазине!
Размер: 5.20 GB (5579305201 Bytes)

Подсолнух! / Химавари!! / Himawari!! [S02] (2007) DVDRip-AVC | L1 Torrent файл
Подсолнух! / Химавари!! / Himawari!! [S02] (2007) DVDRip-AVC | L1 Magnet ссылка
  • Не нравится
  • 0
  • Нравится
Категория: Аниме | Добавил: TOLIAXA | Просмотров: 0 | Комментариев: 0
Уважаемый посетитель, Вы зашли на сайт как незарегистрированный пользователь.
Мы рекомендуем Вам зарегистрироваться либо войти на сайт под своим именем.
Имя:*
E-Mail:
Введите код: *
Кликните на изображение чтобы обновить код, если он неразборчив
Панель пользователя