rutor.info :: Свободный торрент трекер » Зарубежные фильмы » Капитан / Der Hauptmann (2017) BDRip 720p от ELEKTRI4KA | P, A
  • Не нравится
  • 0
  • Нравится
Категория: Зарубежные фильмы | Добавил: TOLIAXA | Просмотров: 0 | Комментариев: 0

Капитан / Der Hauptmann (2017) BDRip 720p от ELEKTRI4KA | P, A


Уважаемые пользователи!
Не забывайте оставаться на раздаче после того, как скачали торрент! Помогите скачать и другим - поддержите свободный обмен!

Если у вас НЕ получается скачать торрент файл, то используйте VPN или качайте через "Magnet ссылку"!

VPN вы можете приобрести в нашем интернет-магазине!
Размер: 6.89 GB (7393240694 Bytes)

Капитан / Der Hauptmann (2017) BDRip 720p от ELEKTRI4KA | P, A Torrent файл
Капитан / Der Hauptmann (2017) BDRip 720p от ELEKTRI4KA | P, A Magnet ссылка

Капитан / Der Hauptmann (2017) BDRip 720p от ELEKTRI4KA | P, A
⇒ Основная информация:

«Власть опьяняет»

Информация о фильме
Название: Капитан
Оригинальное название: Der Hauptmann
Год выхода: 2017
Жанр: драма, военный, история
Режиссер: Роберт Швентке
В ролях: Макс Хубахер, Милан Пешель, Фредерик Лау, Вальдемар Кобус, Александр Фелинг, Самуэль Финци, Вольфрам Кох, Евгения Анселен, Хендрик Арнст, Рик Экерман, Александр Хёрбе, Фердинанд Дёрфлер, Харальд Вармбрунн

О фильме:
Германия, апрель 1945-го. Солдаты немецкой армии массово дезертируют с фронта. Рядовой Вермахта, спасаясь от военного патруля, натыкается на застрявший в поле автомобиль. На сиденье он находит чемодан с офицерской военной формой и документы на имя капитана Вилли Херольда. Чтобы спасти свою жизнь, ему не остаётся ничего другого, кроме как, переодевшись, перевоплотиться в незнакомого ему капитана Херольда. С этого момента солдат действует согласно легенде, будто по личному указанию фюрера он должен разузнать и доложить тому об истинном положении дел в прифронтовой зоне. Встречающиеся на пути «капитана» люди – будь то хозяин постоялого двора, командование лагеря или такие же дезертиры, как и он сам – догадываются, кто перед ними на самом деле. Но все они делают вид, что принимают его за настоящего капитана, потому что у каждого из них к нему свой интерес…



Выпущено: Германия, Франция, Польша, Китай, Португалия / Filmgalerie 451 Alfama Films Opus Film Facing East
Продолжительность: 01:59:29
Озвучивание #1: Профессиональное (многоголосое) | Кипарис
Озвучивание #2: Профессиональное (многоголосое) | HDRezka Studio
Озвучивание #3: Авторское (одноголосое) | Юрий Сербин

Файл
Формат: MKV
Качество: BDRip 720p
Видео: MPEG-4 AVC, 6137 Kb/s, 1280x536
Аудио #1: Russian: AC3, 384 Kb/s (6 ch) | MVO | Кипарис
Аудио #2: Russian: AC3, 448 Kb/s (6 ch) | MVO | HDRezka Studio
Аудио #3: Russian: AC3, 640 Kb/s (6 ch) | AVO | Юрий Сербин
Аудио #4: German: AC3, 640 Kb/s (6 ch) | Original
Субтитры: Russian (Forced, 2 x Full), English, German
Дополнительно: Сохранены оригинальные чаптеры.

Релиз группы: &

Инфо-файл:
Complete name : Kapitan.2017.BDRip.720p.ELEKTRI4KA.UNIONGANG.mkv
Format : Matroska
Format version : Version 4
File size : 6.89 GiB
Duration : 1 h 59 min
Overall bit rate : 8 250 kb/s
Movie name : Kapitan.2017.BDRip.720p.ELEKTRI4KA.UNIONGANG.
Encoded date : UTC 2023-01-23 10:31:33
Writing application : mkvmerge v8.3.0 ('Over the Horizon') 64bit
Writing library : libebml v1.3.1 + libmatroska v1.4.2

Video
ID : 1
Format : AVC
Format/Info : Advanced Video Codec
Format profile : High@L4.1
Format settings : CABAC / 12 Ref Frames
Format settings, CABAC : Yes
Format settings, Reference frames : 12 frames
Codec ID : V_MPEG4/ISO/AVC
Duration : 1 h 59 min
Bit rate : 6 137 kb/s
Width : 1 280 pixels
Height : 536 pixels
Display aspect ratio : 2.40:1
Frame rate mode : Constant
Frame rate : 23.976 (24000/1001) FPS
Color space : YUV
Chroma subsampling : 4:2:0
Bit depth : 8 bits
Scan type : Progressive
Bits/(Pixel*Frame) : 0.373
Stream size : 5.12 GiB (74%)
Writing library : x264 core 157 r2958 57baac4
Encoding settings : cabac=1 / ref=12 / deblock=1:-3:-3 / analyse=0x3:0x133 / me=umh / subme=10 / psy=1 / psy_rd=1.00:0.00 / mixed_ref=1 / me_range=32 / chroma_me=1 / trellis=2 / 8x8dct=1 / cqm=0 / deadzone=21,11 / fast_pskip=0 / chroma_qp_offset=-2 / threads=49 / lookahead_threads=4 / sliced_threads=0 / nr=0 / decimate=0 / interlaced=0 / bluray_compat=0 / constrained_intra=0 / bframes=8 / b_pyramid=2 / b_adapt=2 / b_bias=0 / direct=3 / weightb=1 / open_gop=0 / weightp=2 / keyint=240 / keyint_min=24 / scenecut=40 / intra_refresh=0 / rc=2pass / mbtree=0 / bitrate=6137 / ratetol=1.0 / qcomp=0.60 / qpmin=0 / qpmax=69 / qpstep=4 / cplxblur=20.0 / qblur=0.5 / ip_ratio=1.40 / pb_ratio=1.30 / aq=1:1.00
Default : Yes
Forced : No

Audio #1
ID : 2
Format : AC-3
Format/Info : Audio Coding 3
Commercial name : Dolby Digital
Codec ID : A_AC3
Duration : 1 h 59 min
Bit rate mode : Constant
Bit rate : 384 kb/s
Channel(s) : 6 channels
Channel layout : L R C LFE Ls Rs
Sampling rate : 48.0 kHz
Frame rate : 31.250 FPS (1536 SPF)
Compression mode : Lossy
Stream size : 328 MiB (5%)
Title : MVO (Kiparis)
Language : Russian
Service kind : Complete Main
Default : Yes
Forced : Yes

Audio #2
ID : 3
Format : AC-3
Format/Info : Audio Coding 3
Commercial name : Dolby Digital
Codec ID : A_AC3
Duration : 1 h 59 min
Bit rate mode : Constant
Bit rate : 448 kb/s
Channel(s) : 6 channels
Channel layout : L R C LFE Ls Rs
Sampling rate : 48.0 kHz
Frame rate : 31.250 FPS (1536 SPF)
Compression mode : Lossy
Stream size : 383 MiB (5%)
Title : MVO (HDRezka Studio)
Language : Russian
Service kind : Complete Main
Default : No
Forced : No

Audio #3
ID : 4
Format : AC-3
Format/Info : Audio Coding 3
Commercial name : Dolby Digital
Codec ID : A_AC3
Duration : 1 h 59 min
Bit rate mode : Constant
Bit rate : 640 kb/s
Channel(s) : 6 channels
Channel layout : L R C LFE Ls Rs
Sampling rate : 48.0 kHz
Frame rate : 31.250 FPS (1536 SPF)
Compression mode : Lossy
Stream size : 547 MiB (8%)
Title : AVO (Yu. Serbin)
Language : Russian
Service kind : Complete Main
Default : No
Forced : No

Audio #4
ID : 5
Format : AC-3
Format/Info : Audio Coding 3
Commercial name : Dolby Digital
Codec ID : A_AC3
Duration : 1 h 59 min
Bit rate mode : Constant
Bit rate : 640 kb/s
Channel(s) : 6 channels
Channel layout : L R C LFE Ls Rs
Sampling rate : 48.0 kHz
Frame rate : 31.250 FPS (1536 SPF)
Compression mode : Lossy
Stream size : 547 MiB (8%)
Title : Original
Language : German
Service kind : Complete Main
Default : No
Forced : No

Text #1
ID : 6
Format : UTF-8
Codec ID : S_TEXT/UTF8
Codec ID/Info : UTF-8 Plain Text
Duration : 1 h 54 min
Bit rate : 6 b/s
Frame rate : 0.012 FPS
Count of elements : 81
Stream size : 5.66 KiB (0%)
Title : Forced
Language : Russian
Default : Yes
Forced : Yes

Text #2
ID : 7
Format : UTF-8
Codec ID : S_TEXT/UTF8
Codec ID/Info : UTF-8 Plain Text
Duration : 1 h 58 min
Bit rate : 49 b/s
Frame rate : 0.141 FPS
Count of elements : 1001
Stream size : 42.7 KiB (0%)
Title : Full v1 (IVI)
Language : Russian
Default : No
Forced : No

Text #3
ID : 8
Format : UTF-8
Codec ID : S_TEXT/UTF8
Codec ID/Info : UTF-8 Plain Text
Duration : 1 h 54 min
Bit rate : 58 b/s
Frame rate : 0.123 FPS
Count of elements : 846
Stream size : 49.3 KiB (0%)
Title : Full v2
Language : Russian
Default : No
Forced : No

Text #4
ID : 9
Format : UTF-8
Codec ID : S_TEXT/UTF8
Codec ID/Info : UTF-8 Plain Text
Duration : 1 h 54 min
Bit rate : 33 b/s
Frame rate : 0.124 FPS
Count of elements : 849
Stream size : 28.2 KiB (0%)
Language : English
Default : No
Forced : No

Text #5
ID : 10
Format : UTF-8
Codec ID : S_TEXT/UTF8
Codec ID/Info : UTF-8 Plain Text
Duration : 1 h 58 min
Bit rate : 41 b/s
Frame rate : 0.148 FPS
Count of elements : 1051
Stream size : 35.6 KiB (0%)
Language : German
Default : No
Forced : No

Menu
00:00:00.000 : en:Chapter 1
00:08:22.168 : en:Chapter 2
00:16:57.516 : en:Chapter 3
00:24:09.906 : en:Chapter 4
00:36:53.710 : en:Chapter 5
00:47:40.440 : en:Chapter 6
00:58:52.820 : en:Chapter 7
01:09:22.533 : en:Chapter 8
01:20:07.010 : en:Chapter 9
01:32:54.318 : en:Chapter 10
01:44:01.026 : en:Chapter 11
01:50:09.394 : en:Chapter 12
Скриншоты
Уважаемые пользователи!
Не забывайте оставаться на раздаче после того, как скачали торрент! Помогите скачать и другим - поддержите свободный обмен!

Если у вас НЕ получается скачать торрент файл, то используйте VPN или качайте через "Magnet ссылку"!

VPN вы можете приобрести в нашем интернет-магазине!
Размер: 6.89 GB (7393240694 Bytes)

Капитан / Der Hauptmann (2017) BDRip 720p от ELEKTRI4KA | P, A Torrent файл
Капитан / Der Hauptmann (2017) BDRip 720p от ELEKTRI4KA | P, A Magnet ссылка
  • Не нравится
  • 0
  • Нравится
Категория: Зарубежные фильмы | Добавил: TOLIAXA | Просмотров: 0 | Комментариев: 0
Уважаемый посетитель, Вы зашли на сайт как незарегистрированный пользователь.
Мы рекомендуем Вам зарегистрироваться либо войти на сайт под своим именем.
Имя:*
E-Mail:
Введите код: *
Кликните на изображение чтобы обновить код, если он неразборчив
Панель пользователя