rutor.info :: Свободный торрент трекер » Зарубежные фильмы » Аватар: Путь воды / Avatar: The Way of Water (2022) TS-AVC | D
  • Не нравится
  • +1
  • Нравится
Категория: Зарубежные фильмы | Добавил: TOLIAXA | Просмотров: 537 | Комментариев: 1

Аватар: Путь воды / Avatar: The Way of Water (2022) TS-AVC | D


Уважаемые пользователи!
Не забывайте оставаться на раздаче после того, как скачали торрент! Помогите скачать и другим - поддержите свободный обмен!

Если у вас НЕ получается скачать торрент файл, то используйте VPN или качайте через "Magnet ссылку"!

VPN вы можете приобрести в нашем интернет-магазине!
Размер: 2.91 GB (3123534129 Bytes)

Аватар: Путь воды / Avatar: The Way of Water (2022) TS-AVC | D Torrent файл
Аватар: Путь воды / Avatar: The Way of Water (2022) TS-AVC | D Magnet ссылка

Аватар: Путь воды / Avatar: The Way of Water (2022) TS-AVC | D
⇒ Основная информация:


Информация о фильме
Название: Аватар: Путь воды
Оригинальное название: Avatar: The Way of Water
Год выхода: 2022
Жанр: фантастика, фэнтези, боевик, приключения
Режиссер: Джеймс Кэмерон
В ролях: Сэм Уортингтон, Зои Салдана, Сигурни Уивер, Стивен Лэнг, Кейт Уинслет, Клифф Кёртис, Джоэль Мур, Си Си Эйч Паундер, Иди Фалько, Брендан Коуэлл

О фильме:
После принятия образа аватара солдат Джейк Салли становится предводителем народа на'ви и берет на себя миссию по защите новых друзей от корыстных бизнесменов с Земли. Теперь ему есть за кого бороться — с Джейком его прекрасная возлюбленная Нейтири. Когда на Пандору возвращаются до зубов вооруженные земляне, Джейк готов дать им отпор.



Выпущено: США / 20th Century Studios, TSG Entertainment, Lightstorm Entertainment
Продолжительность: 03:05:02
Озвучивание: Дублированное | TS
Примечание: Дорожка с переводом получена очисткой и последующей обработкой звука экранки.

Файл
Формат: MKV
Качество: TS-AVC | Исходник: Avatar.The.Way.Of.Water.2022.UltraHD.HEVC.Dual.YG
Видео: MPEG-4 AVC, 2025 Kb/s, 1152x448
Аудио: Russian: 48 kHz, AC3 Dolby Digital, 2/0 (L, R) ch, ~224 Kbps | DUB | TS
Субтитры: Russian (Forced)
Скачать: Сэмпл

Релиз от: Sound Master

Инфо-файл:
Complete name : Avatar.The.Way.Of.Water.2022.HDTS-Rip.Rus.Dub.TS.2.0.mkv
Format : Matroska
Format version : Version 4 / Version 2
File size : 2.91 GiB
Duration : 3 h 5 min
Overall bit rate : 2 251 kb/s
Encoded date : UTC 2023-01-14 13:06:51
Writing application : mkvmerge v65.0.0 ('Too Much') 64-bit
Writing library : libebml v1.4.2 + libmatroska v1.6.4

Video
ID : 1
Format : AVC
Format/Info : Advanced Video Codec
Format profile : High@L4.1
Format settings : CABAC / 16 Ref Frames
Format settings, CABAC : Yes
Format settings, ReFrames : 16 frames
Codec ID : V_MPEG4/ISO/AVC
Duration : 3 h 5 min
Bit rate : 2 025 kb/s
Width : 1 152 pixels
Height : 448 pixels
Display aspect ratio : 2.571
Frame rate mode : Constant
Frame rate : 24.000 FPS
Color space : YUV
Chroma subsampling : 4:2:0
Bit depth : 8 bits
Scan type : Progressive
Bits/(Pixel*Frame) : 0.163
Stream size : 2.62 GiB (90%)
Title : Avatar.The.Way.Of.Water.2022.HDTS-Rip
Writing library : x264 core 148 r2638 7599210
Encoding settings : cabac=1 / ref=16 / deblock=1:0:0 / analyse=0x3:0x113 / me=umh / subme=10 / psy=1 / psy_rd=1.00:0.00 / mixed_ref=1 / me_range=32 / chroma_me=1 / trellis=2 / 8x8dct=1 / cqm=0 / deadzone=21,11 / fast_pskip=1 / chroma_qp_offset=-2 / threads=12 / lookahead_threads=3 / sliced_threads=0 / nr=0 / decimate=1 / interlaced=0 / bluray_compat=0 / constrained_intra=0 / bframes=16 / b_pyramid=2 / b_adapt=2 / b_bias=0 / direct=3 / weightb=1 / open_gop=0 / weightp=2 / keyint=250 / keyint_min=23 / scenecut=40 / intra_refresh=0 / rc_lookahead=60 / rc=2pass / mbtree=1 / bitrate=2025 / ratetol=1.0 / qcomp=0.60 / qpmin=0 / qpmax=69 / qpstep=4 / cplxblur=20.0 / qblur=0.5 / ip_ratio=1.40 / aq=1:1.00
Language : English
Default : Yes
Forced : No
Color range : Limited
Color primaries : BT.709
Transfer characteristics : BT.709
Matrix coefficients : BT.709

Audio
ID : 2
Format : AC-3
Format/Info : Audio Coding 3
Codec ID : A_AC3
Duration : 3 h 5 min
Bit rate mode : Constant
Bit rate : 224 kb/s
Channel(s) : 2 channels
Channel positions : Front: L R
Sampling rate : 48.0 kHz
Frame rate : 31.250 FPS (1536 SPF)
Bit depth : 16 bits
Compression mode : Lossy
Stream size : 296 MiB (10%)
Title : Rus. Dub. TS. 2.0. 224.
Language : Russian
Service kind : Complete Main
Default : Yes
Forced : No

Text
ID : 3
Format : UTF-8
Codec ID : S_TEXT/UTF8
Codec ID/Info : UTF-8 Plain Text
Duration : 2 h 59 min
Bit rate : 1 b/s
Count of elements : 53
Stream size : 2.08 KiB (0%)
Title : Rus. Forsed.
Language : Russian
Default : Yes
Forced : No
Скриншоты
Уважаемые пользователи!
Не забывайте оставаться на раздаче после того, как скачали торрент! Помогите скачать и другим - поддержите свободный обмен!

Если у вас НЕ получается скачать торрент файл, то используйте VPN или качайте через "Magnet ссылку"!

VPN вы можете приобрести в нашем интернет-магазине!
Размер: 2.91 GB (3123534129 Bytes)

Аватар: Путь воды / Avatar: The Way of Water (2022) TS-AVC | D Torrent файл
Аватар: Путь воды / Avatar: The Way of Water (2022) TS-AVC | D Magnet ссылка
  • Не нравится
  • +1
  • Нравится
Категория: Зарубежные фильмы | Добавил: TOLIAXA | Просмотров: 537 | Комментариев: 1
Уважаемый посетитель, Вы зашли на сайт как незарегистрированный пользователь.
Мы рекомендуем Вам зарегистрироваться либо войти на сайт под своим именем.
Имя:*
E-Mail:
Введите код: *
Кликните на изображение чтобы обновить код, если он неразборчив
    Yanvara | Группа: Гости | 20 января 2023 20:11
    • Нравится
    • 1

Поддайте газку, ребята. Пиров совсем нет

Панель пользователя