rutor.info :: Свободный торрент трекер » Зарубежные фильмы » Плата за подставу / Расплата / Payback (2021) WEB-DL 1080p от ELEKTRI4KA | D
  • Не нравится
  • 0
  • Нравится
Категория: Зарубежные фильмы | Добавил: TOLIAXA | Просмотров: 23 | Комментариев: 0

Плата за подставу / Расплата / Payback (2021) WEB-DL 1080p от ELEKTRI4KA | D


Уважаемые пользователи!
Не забывайте оставаться на раздаче после того, как скачали торрент! Помогите скачать и другим - поддержите свободный обмен!

Если у вас НЕ получается скачать торрент файл, то используйте VPN или качайте через "Magnet ссылку"!

VPN вы можете приобрести в нашем интернет-магазине!
Размер: 3.90 GB (4184908594 Bytes)

Плата за подставу / Расплата / Payback (2021) WEB-DL 1080p от ELEKTRI4KA | D Torrent файл
Плата за подставу / Расплата / Payback (2021) WEB-DL 1080p от ELEKTRI4KA | D Magnet ссылка

Плата за подставу / Расплата / Payback (2021) WEB-DL 1080p от ELEKTRI4KA | D
⇒ Основная информация:

«Кто подставил офисного клерка? Майк мстит за шесть лет тюрьмы. Голливудский флэшбек в криминальную романтику 90-х»

Информация о фильме
Название: Плата за подставу / Расплата
Оригинальное название: Payback
Год выхода: 2021
Жанр: триллер, драма
Режиссер: Йохан Нийенхейс
В ролях: Мэтт Леветт, Тоби Леонард Мур, Анна Барышников, Лев Горн, Раде Шербеджия, Елена Сатине, Борис Ли Крутоног, Давид Вадим, Билл Сейдж, Эри Бэркэн

О фильме:
Молодой биржевой маклер Майк Маркович хорош в заключении сделок и заслужил титул «принц продаж с одного звонка». Неожиданно он узнает то, что знать ему не следовало — компания, на которую он работает, связана с русской мафией. Вслед за эти открытием Майка обвиняют в двойном убийстве, и тем самым выводят из игры на долгие шесть лет. За решеткой у Майка было достаточно времени разобраться, что произошло и кто конкретно виновен в его заточении. Бывший офисный работник освобождается и должен выбрать: восстановить отношения с женой и дочерью, которую он никогда не видел, или отомстить за подставу.



Выпущено: США / Mensch Productions
Продолжительность: 01:27:52
Озвучивание: Дублированное | OKKO

Файл
Формат: MKV
Качество: WEB-DL 1080p
Видео: MPEG-4 AVC, 6000 Кb/s, 1920x1080
Аудио: Russian: AC3, 384 Kb/s (6 ch)
Субтитры: Russian (Forced, Full)
Дополнительно: Нет

Релиз группы: &

Инфо-файл:
Complete name : Payback.2021.1080p.WEBDL.DD5.1.mkv
Format : Matroska
Format version : Version 4
File size : 3.90 GiB
Duration : 1 h 27 min
Overall bit rate : 6 350 kb/s
Encoded date : UTC 2023-01-15 18:22:50
Writing application : mkvmerge v15.0.0 ('Duel with the Devil') 64-bit
Writing library : libebml v1.3.5 + libmatroska v1.4.5
Cover : Yes
Attachments : cover.jpg

Video
ID : 1
Format : AVC
Format/Info : Advanced Video Codec
Format profile : High@L4
Format settings : CABAC / 4 Ref Frames
Format settings, CABAC : Yes
Format settings, RefFrames : 4 frames
Codec ID : V_MPEG4/ISO/AVC
Duration : 1 h 27 min
Bit rate : 6 000 kb/s
Width : 1 920 pixels
Height : 1 080 pixels
Display aspect ratio : 16:9
Frame rate mode : Constant
Frame rate : 25.000 FPS
Color space : YUV
Chroma subsampling : 4:2:0
Bit depth : 8 bits
Scan type : Progressive
Bits/(Pixel*Frame) : 0.116
Stream size : 3.66 GiB (94%)
Writing library : x264 core 157
Encoding settings : cabac=1 / ref=4 / deblock=1:0:0 / analyse=0x3:0x133 / me=umh / subme=10 / psy=1 / psy_rd=1.00:0.00 / mixed_ref=1 / me_range=24 / chroma_me=1 / trellis=2 / 8x8dct=1 / cqm=0 / deadzone=21,11 / fast_pskip=1 / chroma_qp_offset=-2 / threads=34 / lookahead_threads=5 / sliced_threads=0 / nr=0 / decimate=1 / interlaced=0 / bluray_compat=0 / stitchable=1 / constrained_intra=0 / bframes=8 / b_pyramid=2 / b_adapt=2 / b_bias=0 / direct=3 / weightb=1 / open_gop=0 / weightp=2 / keyint=250 / keyint_min=25 / scenecut=40 / intra_refresh=0 / rc_lookahead=60 / rc=2pass / mbtree=1 / bitrate=6000 / ratetol=1.0 / qcomp=0.60 / qpmin=0 / qpmax=69 / qpstep=4 / cplxblur=20.0 / qblur=0.5 / vbv_maxrate=6600 / vbv_bufsize=12000 / nal_hrd=none / filler=0 / ip_ratio=1.40 / aq=1:1.00
Language : English
Default : Yes
Forced : No

Audio
ID : 2
Format : AC-3
Format/Info : Audio Coding 3
Commercial name : Dolby Digital
Codec ID : A_AC3
Duration : 1 h 27 min
Bit rate mode : Constant
Bit rate : 384 kb/s
Channel(s) : 6 channels
Channel layout : L R C LFE Ls Rs
Sampling rate : 48.0 kHz
Frame rate : 31.250 FPS (1536 SPF)
Bit depth : 16 bits
Compression mode : Lossy
Stream size : 241 MiB (6%)
Title : DUB | OKKO
Language : Russian
Service kind : Complete Main
Default : Yes
Forced : No

Text #1
ID : 3
Format : UTF-8
Codec ID : S_TEXT/UTF8
Codec ID/Info : UTF-8 Plain Text
Duration : 1 h 26 min
Bit rate : 4 b/s
Count of elements : 58
Stream size : 2.60 KiB (0%)
Title : Forced
Language : Russian
Default : Yes
Forced : Yes

Text #2
ID : 4
Format : UTF-8
Codec ID : S_TEXT/UTF8
Codec ID/Info : UTF-8 Plain Text
Duration : 1 h 26 min
Bit rate : 71 b/s
Count of elements : 1039
Stream size : 45.5 KiB (0%)
Title : Full
Language : Russian
Default : No
Forced : No
Скриншоты

Уважаемые пользователи!
Не забывайте оставаться на раздаче после того, как скачали торрент! Помогите скачать и другим - поддержите свободный обмен!

Если у вас НЕ получается скачать торрент файл, то используйте VPN или качайте через "Magnet ссылку"!

VPN вы можете приобрести в нашем интернет-магазине!
Размер: 3.90 GB (4184908594 Bytes)

Плата за подставу / Расплата / Payback (2021) WEB-DL 1080p от ELEKTRI4KA | D Torrent файл
Плата за подставу / Расплата / Payback (2021) WEB-DL 1080p от ELEKTRI4KA | D Magnet ссылка
  • Не нравится
  • 0
  • Нравится
Категория: Зарубежные фильмы | Добавил: TOLIAXA | Просмотров: 23 | Комментариев: 0
Уважаемый посетитель, Вы зашли на сайт как незарегистрированный пользователь.
Мы рекомендуем Вам зарегистрироваться либо войти на сайт под своим именем.
Имя:*
E-Mail:
Введите код: *
Кликните на изображение чтобы обновить код, если он неразборчив
Панель пользователя