rutor.info :: Свободный торрент трекер » Зарубежные фильмы » Ограбление по-бразильски / São Paulo Heist (2022) WEB-DLRip-AVC от DoMiNo & селезень | D
  • Не нравится
  • 0
  • Нравится
Категория: Зарубежные фильмы | Добавил: TOLIAXA | Просмотров: 2 | Комментариев: 0

Ограбление по-бразильски / São Paulo Heist (2022) WEB-DLRip-AVC от DoMiNo & селезень | D


Уважаемые пользователи!
Не забывайте оставаться на раздаче после того, как скачали торрент! Помогите скачать и другим - поддержите свободный обмен!

Если у вас НЕ получается скачать торрент файл, то используйте VPN или качайте через "Magnet ссылку"!

VPN вы можете приобрести в нашем интернет-магазине!
Размер: 1.48 GB (1593964668 Bytes)

Ограбление по-бразильски / São Paulo Heist (2022) WEB-DLRip-AVC от DoMiNo & селезень | D Torrent файл
Ограбление по-бразильски / São Paulo Heist (2022) WEB-DLRip-AVC от DoMiNo & селезень | D Magnet ссылка

Ограбление по-бразильски / São Paulo Heist (2022) WEB-DLRip-AVC от DoMiNo & селезень | D
⇒ Основная информация:
Информация о фильме
Название: Ограбление по-бразильски
Оригинальное название: São Paulo Heist
Год выхода: 2022
Жанр: криминал
Режиссер: Флавио Фредерико
В ролях: Гиу Кота, Бьянка Бин, Талес Жалоретто, Эриберту Леан

О фильме:
Последняя и самая масштабная цель банды Рубенса — Сан-Паулу, финансовый центр Бразилии. Вместе со своей приемной дочерью Леоной он разрабатывает сложнейший план по ограблению сейфового хранилища банка. Если все пройдет гладко, то несколько сотен миллионов долларов обеспечат беззаботную жизнь каждому гангстеру. Но успеху операции мешают неразрешенные проблемы прошлого самих преступников. Фильм основан на реальных событиях одного из крупнейших ограблений частных банков в Бразилии.



Страна: Бразилия
Студия: Agencia Nacional do Cinema
Продолжительность: 01:45:53
Перевод: Профессиональный (полное дублирование) | OKKO
Субтитры: Русские (Forced, Full), Английские (Full, SDH)

Файл
Формат: Matroska
Качество: WEB-DLRip-AVC
Видео: 1024x426 at 25.000 fps, x264@L4.1, ~1621 kbps
Аудио: AC3, 6 ch, ~384 kbps - | Русский |
Формат субтитров: softsub (SRT)

***Рип от: -=DoMiNo=-




M/I
x264 [info]: frame I:917 Avg QP:13.43 size: 38739
x264 [info]: frame P:37975 Avg QP:15.52 size: 16788
x264 [info]: frame B:119936 Avg QP:17.48 size: 5122
x264 [info]: consecutive B-frames: 3.8% 5.1% 12.8% 19.0% 18.5% 15.3% 4.7% 2.1% 13.6% 1.1% 0.5% 0.6% 2.8%

General
Unique ID : 98028974667613996728821956440003617977 (0x49BFB19B1B5E2DA6AA80AFEBA322A4B9)
Complete name : H:Sao.Paulo.Heist.2022.WEB-DLRip.x264.seleZen.mkv
Format : Matroska
Format version : Version 4
File size : 1.48 GiB
Duration : 1 h 45 min
Overall bit rate : 2 007 kb/s
Movie name : Sao.Paulo.Heist.2022.WEB-DLRip.x264.seleZen
Encoded date : UTC 2023-01-16 19:53:04
Writing application : mkvmerge v73.0.0 ('25 or 6 to 4') 64-bit
Writing library : libebml v1.4.4 + libmatroska v1.7.1
Cover : Yes
Attachments : cover.jpg / small_cover.jpg

Video
ID : 1
Format : AVC
Format/Info : Advanced Video Codec
Format profile : High@L4.1
Format settings : CABAC / 11 Ref Frames
Format settings, CABAC : Yes
Format settings, Reference : 11 frames
Codec ID : V_MPEG4/ISO/AVC
Duration : 1 h 45 min
Bit rate : 1 621 kb/s
Width : 1 024 pixels
Height : 426 pixels
Display aspect ratio : 2.40:1
Frame rate mode : Constant
Frame rate : 25.000 FPS
Color space : YUV
Chroma subsampling : 4:2:0
Bit depth : 8 bits
Scan type : Progressive
Bits/(Pixel*Frame) : 0.149
Stream size : 1.20 GiB (81%)
Title : -=DoMiNo=-
Writing library : x264 core 164 by -=DoMiNo=-
Encoding settings : cabac=1 / ref=11 / deblock=1:-3:-3 / analyse=0x3:0x133 / me=umh / subme=10 / psy=1 / psy_rd=1.05:0.05 / mixed_ref=1 / me_range=32 / chroma_me=1 / trellis=2 / 8x8dct=1 / cqm=0 / deadzone=21,11 / fast_pskip=0 / chroma_qp_offset=-3 / threads=17 / lookahead_threads=3 / sliced_threads=0 / nr=0 / decimate=1 / interlaced=0 / bluray_compat=0 / constrained_intra=0 / bframes=12 / b_pyramid=2 / b_adapt=2 / b_bias=0 / direct=1 / weightb=1 / open_gop=0 / weightp=2 / keyint=240 / keyint_min=24 / scenecut=40 / intra_refresh=0 / rc=crf / mbtree=0 / crf=18.5 / qcomp=0.65 / qpmin=0 / qpmax=69 / qpstep=4 / ip_ratio=1.35 / pb_ratio=1.25 / aq=3:0.90
Language : English
Default : Yes
Forced : No
Color range : Limited
Matrix coefficients : BT.709

Audio
ID : 2
Format : AC-3
Format/Info : Audio Coding 3
Commercial name : Dolby Digital
Codec ID : A_AC3
Duration : 1 h 45 min
Bit rate mode : Constant
Bit rate : 384 kb/s
Channel(s) : 6 channels
Channel layout : L R C LFE Ls Rs
Sampling rate : 48.0 kHz
Frame rate : 31.250 FPS (1536 SPF)
Compression mode : Lossy
Stream size : 291 MiB (19%)
Title : DUB
Language : Russian
Service kind : Complete Main
Default : Yes
Forced : Yes

Text #1
ID : 3
Format : UTF-8
Codec ID : S_TEXT/UTF8
Codec ID/Info : UTF-8 Plain Text
Duration : 1 h 40 min
Bit rate : 3 b/s
Frame rate : 0.009 FPS
Count of elements : 52
Stream size : 2.93 KiB (0%)
Title : Forced
Language : Russian
Default : Yes
Forced : Yes

Text #2
ID : 4
Format : UTF-8
Codec ID : S_TEXT/UTF8
Codec ID/Info : UTF-8 Plain Text
Duration : 1 h 40 min
Bit rate : 71 b/s
Frame rate : 0.164 FPS
Count of elements : 990
Stream size : 52.7 KiB (0%)
Title : Full
Language : Russian
Default : No
Forced : No

Menu
00:00:00.000 : en:Глава 01
00:10:00.000 : en:Глава 02
00:20:00.000 : en:Глава 03
00:30:00.000 : en:Глава 04
00:40:00.000 : en:Глава 05
00:50:00.000 : en:Глава 06
01:00:00.000 : en:Глава 07
01:10:00.000 : en:Глава 08
01:20:00.000 : en:Глава 09
01:30:00.000 : en:Глава 10
01:40:00.000 : en:Глава 11
Релиз: Присоединяйся к: Кликай на баннеры.
Уважаемые пользователи!
Не забывайте оставаться на раздаче после того, как скачали торрент! Помогите скачать и другим - поддержите свободный обмен!

Если у вас НЕ получается скачать торрент файл, то используйте VPN или качайте через "Magnet ссылку"!

VPN вы можете приобрести в нашем интернет-магазине!
Размер: 1.48 GB (1593964668 Bytes)

Ограбление по-бразильски / São Paulo Heist (2022) WEB-DLRip-AVC от DoMiNo & селезень | D Torrent файл
Ограбление по-бразильски / São Paulo Heist (2022) WEB-DLRip-AVC от DoMiNo & селезень | D Magnet ссылка
  • Не нравится
  • 0
  • Нравится
Категория: Зарубежные фильмы | Добавил: TOLIAXA | Просмотров: 2 | Комментариев: 0
Уважаемый посетитель, Вы зашли на сайт как незарегистрированный пользователь.
Мы рекомендуем Вам зарегистрироваться либо войти на сайт под своим именем.
Имя:*
E-Mail:
Введите код: *
Кликните на изображение чтобы обновить код, если он неразборчив
Панель пользователя