rutor.info :: Свободный торрент трекер » Наши фильмы » Волшебники (2022) WEB-DLRip-AVC от Files-х
  • Не нравится
  • 0
  • Нравится
Категория: Наши фильмы | Добавил: TOLIAXA | Просмотров: 0 | Комментариев: 0

Волшебники (2022) WEB-DLRip-AVC от Files-х


Уважаемые пользователи!
Не забывайте оставаться на раздаче после того, как скачали торрент! Помогите скачать и другим - поддержите свободный обмен!

Если у вас НЕ получается скачать торрент файл, то используйте VPN или качайте через "Magnet ссылку"!

VPN вы можете приобрести в нашем интернет-магазине!
Размер: 2.03 GB (2183635292 Bytes)

Волшебники (2022) WEB-DLRip-AVC от Files-х Torrent файл
Волшебники (2022) WEB-DLRip-AVC от Files-х Magnet ссылка

Волшебники (2022) WEB-DLRip-AVC от Files-х
⇒ Основная информация:

Информация о фильме
Оригинальное название: Волшебники
Год выпуска: 2022
Жанр: Фэнтези, семейный, приключения, экранизация
Режиссер: Ренат Давлетьяров
В ролях: Яков Трескунов, Ева Тимуш, Александр Яценко, Тамара Саксина, Ангелина Стречина, Любовь Шевченко, Ислам Абдуллин, Артем Кошман, Андрей Шалагинов, Сергей Карасевич, Алина Бабак, Женя Малахова, Ирина Шарневская, Владимир Капустин, Андрей Островский

О фильме: По мотивам книги Юрия Томина «Шел по городу волшебник». 13-летний московский школьник Артем обнаруживает в школьном шкафчике таинственный коробок спичек, которые, как выясняется, способны исполнять любые желания. Выдумщик Артем не упускает шанс стать настоящим волшебником и дает волю своей безудержной фантазии. Ломается спичка, - и по московскому бульвару шествует слон. Ломается другая, - и вся улица против своей воли отплясывает безумный танец. Позже Тема знакомится с загадочной Девочкой-волшебницей, которая и подбросила ему коробок. Вместе они парят в усеянном звездами небе, без акваланга спускаются на морское дно, путешествуют по мирам фантазий и воспоминаний... Теме открываются поистине бескрайние возможности спичек. Однако у всего есть своя цена.

Страна: Россия
Студия: Кинокомпания ООО «Студия Муравей», "Интерфест", "Маринс Групп Интертеймент", "Реал-Дакота"
Продолжительность: 01:35:23

Файл
Кодек: h.264
Качество: WEB-DLRip-AVC
Видео: MPEG-4 AVC, ~ 2412 Кбит/с, 1024x432, 24 кадр/с
Аудио: AC3, 6 ch, 640 Кбит/с
Язык: Русский
Cубтитры: Нет

Скриншоты




MediaInfo

General
Unique ID : 190769493249483180326015783814985711205 (0x8F84DE32222A2CD1A548FDCF2A447E65)
Complete name : F:Волшебники.(2022).WEB-DLRip.(AVC).by.Серый1779.Files-x.mkv
Format : Matroska
Format version : Version 2
File size : 2.03 GiB
Duration : 1 h 35 min
Overall bit rate : 3 052 kb/s
Encoded date : UTC 2022-12-28 23:47:25
Writing application : mkvmerge v7.8.0 ('River Man') 32bit built on Apr 3 2015 12:11:22
Writing library : libebml v1.3.1 + libmatroska v1.4.2

Video
ID : 1
Format : AVC
Format/Info : Advanced Video Codec
Format profile : High@L4.1
Format settings : CABAC / 9 Ref Frames
Format settings, CABAC : Yes
Format settings, RefFrames : 9 frames
Codec ID : V_MPEG4/ISO/AVC
Duration : 1 h 35 min
Bit rate : 2 412 kb/s
Width : 1 024 pixels
Height : 432 pixels
Display aspect ratio : 2.40:1
Frame rate mode : Constant
Frame rate : 24.000 FPS
Color space : YUV
Chroma subsampling : 4:2:0
Bit depth : 8 bits
Scan type : Progressive
Bits/(Pixel*Frame) : 0.227
Stream size : 1.57 GiB (77%)
Writing library : x264 core 146 r2538 121396c
Encoding settings : cabac=1 / ref=9 / deblock=1:-2:-1 / analyse=0x3:0x133 / me=umh / subme=9 / psy=1 / psy_rd=1.00:0.15 / mixed_ref=1 / me_range=32 / chroma_me=1 / trellis=2 / 8x8dct=1 / cqm=0 / deadzone=21,11 / fast_pskip=0 / chroma_qp_offset=-3 / threads=18 / lookahead_threads=3 / sliced_threads=0 / nr=0 / decimate=1 / interlaced=0 / bluray_compat=0 / constrained_intra=0 / bframes=9 / b_pyramid=2 / b_adapt=2 / b_bias=0 / direct=3 / weightb=1 / open_gop=0 / weightp=2 / keyint=250 / keyint_min=23 / scenecut=40 / intra_refresh=0 / rc=2pass / mbtree=0 / bitrate=2412 / ratetol=1.0 / qcomp=0.60 / qpmin=0 / qpmax=69 / qpstep=4 / cplxblur=20.0 / qblur=0.5 / ip_ratio=1.40 / pb_ratio=1.30 / aq=2:1.00
Default : Yes
Forced : No
Color range : Limited
Color primaries : BT.709
Transfer characteristics : BT.709
Matrix coefficients : BT.709

Audio
ID : 2
Format : AC-3
Format/Info : Audio Coding 3
Format settings, Endianness : Big
Codec ID : A_AC3
Duration : 1 h 35 min
Bit rate mode : Constant
Bit rate : 640 kb/s
Channel(s) : 6 channels
Channel positions : Front: L C R, Side: L R, LFE
Sampling rate : 48.0 kHz
Frame rate : 31.250 FPS (1536 SPF)
Bit depth : 16 bits
Compression mode : Lossy
Stream size : 437 MiB (21%)
Service kind : Complete Main
Default : Yes
Forced : No




Релиз от:
Уважаемые пользователи!
Не забывайте оставаться на раздаче после того, как скачали торрент! Помогите скачать и другим - поддержите свободный обмен!

Если у вас НЕ получается скачать торрент файл, то используйте VPN или качайте через "Magnet ссылку"!

VPN вы можете приобрести в нашем интернет-магазине!
Размер: 2.03 GB (2183635292 Bytes)

Волшебники (2022) WEB-DLRip-AVC от Files-х Torrent файл
Волшебники (2022) WEB-DLRip-AVC от Files-х Magnet ссылка
  • Не нравится
  • 0
  • Нравится
Категория: Наши фильмы | Добавил: TOLIAXA | Просмотров: 0 | Комментариев: 0
Уважаемый посетитель, Вы зашли на сайт как незарегистрированный пользователь.
Мы рекомендуем Вам зарегистрироваться либо войти на сайт под своим именем.
Имя:*
E-Mail:
Введите код: *
Кликните на изображение чтобы обновить код, если он неразборчив
Панель пользователя