rutor.info :: Свободный торрент трекер » Наши фильмы » Гром: Трудное детство (2022) WEB-DLRip от New-Team
  • Не нравится
  • 0
  • Нравится
Категория: Наши фильмы | Добавил: TOLIAXA | Просмотров: 6 | Комментариев: 0

Гром: Трудное детство (2022) WEB-DLRip от New-Team


Уважаемые пользователи!
Не забывайте оставаться на раздаче после того, как скачали торрент! Помогите скачать и другим - поддержите свободный обмен!

Если у вас НЕ получается скачать торрент файл, то используйте VPN или качайте через "Magnet ссылку"!

VPN вы можете приобрести в нашем интернет-магазине!
Размер: 1.46 GB (1566341518 Bytes)

Гром: Трудное детство (2022) WEB-DLRip от New-Team Torrent файл
Гром: Трудное детство (2022) WEB-DLRip от New-Team Magnet ссылка

Гром: Трудное детство (2022) WEB-DLRip от New-Team
⇒ Основная информация:

Гром: Трудное детство

Год выпуска: 2022
Выпущено: Россия, Плюс Студия, Bubble Studios
Жанр: Приключения, боевик
Режиссер: Олег Трофим
В ролях: Кай Гетц, Сергей Марин, Алексей Ведерников, Владимир Яганов, Даниил Воробьёв, Ирина Розанова, Алексей Тахаров, Антон Адасинский, Игорь Усачев, Александр Гаранин, Даниил Молчанов

О фильме: Юный Игорь Гром ищет варианты срочно заработать большую сумму и ввязывается в сомнительную авантюру на пару с другом Игнатом. Тем временем его отец вместе с будущим начальником петербургской полиции Фёдором Прокопенко охотится за боссом криминального мира по прозвищу Анубис.



Продолжительность: 01:25:24
Перевод: Не требуется
Субтитры: Русские (отдельно)
Примечание: Присутствует анонс от Кинопоиск

Раздача от:

Автор релиза: JNS82.
Формат: AVI
Качество: WEB-DLRip
Видео: 704x320 (2.2:1), 24.000 fps, XviD MPEG-4 ~ 0.367 kbps avg, 1987 bit/pixel
Аудио: 48 kHz, AC3 Dolby Digital, 3/2 (L,C,R,l,r) + LFE ch, ~ 448 kbps | RUS |

MediaInfo
General
Complete name : E:TorrentsGrom.Trudnoe.Detstvo.WEB-DLRip_от New-TeamGrom.Trudnoe.Detstvo.WEB-DLRip_от New-Team.avi
Format : AVI
Format/Info : Audio Video Interleave
File size : 1.46 GiB
Duration : 1 h 25 min
Overall bit rate : 2 444 kb/s
Movie name : Grom.2022.
Writing application : VirtualDubModRus 1.5.10.2 (build 2542/release)
Writing library : VirtualDubMod build 2542/release
Comment : Rip by JNS82

Video
ID : 0
Format : MPEG-4 Visual
Format profile : Advanced Simple@L5
Format settings : BVOP1 / Custom Matrix
Format settings, BVOP : 1
Format settings, QPel : No
Format settings, GMC : No warppoints
Format settings, Matrix : Custom
Codec ID : XVID
Codec ID/Hint : XviD
Duration : 1 h 25 min
Bit rate : 1 987 kb/s
Width : 704 pixels
Height : 320 pixels
Display aspect ratio : 2.2:1
Frame rate : 24.000 FPS
Color space : YUV
Chroma subsampling : 4:2:0
Bit depth : 8 bits
Scan type : Progressive
Compression mode : Lossy
Bits/(Pixel*Frame) : 0.367
Stream size : 1.19 GiB (81%)
Writing library : XviD 69

Audio
ID : 1
Format : AC-3
Format/Info : Audio Coding 3
Commercial name : Dolby Digital
Codec ID : 2000
Duration : 1 h 25 min
Bit rate mode : Constant
Bit rate : 448 kb/s
Channel(s) : 6 channels
Channel layout : L R C LFE Ls Rs
Sampling rate : 48.0 kHz
Frame rate : 31.250 FPS (1536 SPF)
Compression mode : Lossy
Stream size : 274 MiB (18%)
Alignment : Split across interleaves
Interleave, duration : 42 ms (1.00 video frame)
Interleave, preload duratio : 500 ms
Service kind : Complete Main
Уважаемые пользователи!
Не забывайте оставаться на раздаче после того, как скачали торрент! Помогите скачать и другим - поддержите свободный обмен!

Если у вас НЕ получается скачать торрент файл, то используйте VPN или качайте через "Magnet ссылку"!

VPN вы можете приобрести в нашем интернет-магазине!
Размер: 1.46 GB (1566341518 Bytes)

Гром: Трудное детство (2022) WEB-DLRip от New-Team Torrent файл
Гром: Трудное детство (2022) WEB-DLRip от New-Team Magnet ссылка
  • Не нравится
  • 0
  • Нравится
Категория: Наши фильмы | Добавил: TOLIAXA | Просмотров: 6 | Комментариев: 0
Уважаемый посетитель, Вы зашли на сайт как незарегистрированный пользователь.
Мы рекомендуем Вам зарегистрироваться либо войти на сайт под своим именем.
Имя:*
E-Mail:
Введите код: *
Кликните на изображение чтобы обновить код, если он неразборчив
Панель пользователя