rutor.info :: Свободный торрент трекер » Наши фильмы » Гром: Трудное детство (2022) WEB-DLRip-AVC от New-Team | КиноПоиск HD
  • Не нравится
  • 0
  • Нравится
Категория: Наши фильмы | Добавил: TOLIAXA | Просмотров: 2 | Комментариев: 0

Гром: Трудное детство (2022) WEB-DLRip-AVC от New-Team | КиноПоиск HD


Уважаемые пользователи!
Не забывайте оставаться на раздаче после того, как скачали торрент! Помогите скачать и другим - поддержите свободный обмен!

Если у вас НЕ получается скачать торрент файл, то используйте VPN или качайте через "Magnet ссылку"!

VPN вы можете приобрести в нашем интернет-магазине!
Размер: 1.41 GB (1512346487 Bytes)

Гром: Трудное детство (2022) WEB-DLRip-AVC от New-Team | КиноПоиск HD Torrent файл
Гром: Трудное детство (2022) WEB-DLRip-AVC от New-Team | КиноПоиск HD Magnet ссылка

Гром: Трудное детство (2022) WEB-DLRip-AVC от New-Team | КиноПоиск HD
⇒ Основная информация:

Гром: Трудное детство






Страна: Россия
Жанр: приключения, боевик
Год выпуска: 2022
Продолжительность: 01:24:54

Перевод: Не требуется
Субтитры: русские (полные, SDH)
Оригинальная аудиодорожка: русский

Режиссер: Олег Трофим

В ролях: Кай Гетц, Сергей Марин, Алексей Ведерников, Владимир Яганов, Даниил Воробьёв, Ирина Розанова, Алексей Тахаров, Антон Адасинский, Игорь Усачев, Александр Гаранин

Описание: Юный Игорь Гром ищет варианты срочно заработать большую сумму и ввязывается в сомнительную авантюру на пару с другом Игнатом. Тем временем его отец вместе с будущим начальником петербургской полиции Фёдором Прокопенко охотится за боссом криминального мира по прозвищу Анубис.



Релиз:

Автор рипа: stalkerok

Сэмпл

Качество видео: WEB-DLRip-AVC | Исходник: Grom.Trudnoe.detstvo.2022.2160p.KP.WEB-DL.DDP5.1.HEVC-EniaHD
Формат видео: MKV
Видео кодек: AVC
Аудио кодек: AC3
Видео: AVC, 1924 Кбит/сек, 1114x506 (2.2:1), 24 кадр/сек
Аудио: AC3, 448 Кбит/сек, 48 КГц, 5.1 - русский

x264/MediaInfo


---[Information] [02.01.2023 00:33:36] x264 [info]: frame I:963 Avg QP:15.68 size: 59843
---[Information] [02.01.2023 00:33:36] x264 [info]: frame P:24676 Avg QP:17.41 size: 21150
---[Information] [02.01.2023 00:33:36] x264 [info]: frame B:96629 Avg QP:20.69 size: 6688
---[Information] [02.01.2023 00:33:36] x264 [info]: consecutive B-frames: 1.7% 1.6% 5.5% 17.5% 29.2% 24.3% 7.7% 2.3% 3.1% 3.6% 1.4% 0.3% 0.5% 0.8% 0.3% 0.3%

General
Unique ID : 21346824825490788901739590560563961688 (0x100F3FB8E30BA61BE699DDFF7B199F58)
Complete name : D:tempGrom.Trudnoe.detstvo.2022.KP.WEB-DLRip.x264.DD5.1.Rus-stalkerok.mkv
Format : Matroska
Format version : Version 4
File size : 1.41 GiB
Duration : 1 h 24 min
Overall bit rate : 2 375 kb/s
Movie name : Гром: Трудное детство (2022)
Encoded date : UTC 2023-01-01 21:35:38
Writing application : mkvmerge v72.0.0 ('Minuano (Six-eight)') 64-bit
Writing library : libebml v1.4.4 + libmatroska v1.7.1

Video
ID : 1
Format : AVC
Format/Info : Advanced Video Codec
Format profile : High@L4.1
Format settings : CABAC / 14 Ref Frames
Format settings, CABAC : Yes
Format settings, Reference frames : 14 frames
Codec ID : V_MPEG4/ISO/AVC
Duration : 1 h 24 min
Bit rate : 1 925 kb/s
Width : 1 114 pixels
Height : 506 pixels
Display aspect ratio : 2.2:1
Frame rate mode : Constant
Frame rate : 24.000 FPS
Color space : YUV
Chroma subsampling : 4:2:0
Bit depth : 8 bits
Scan type : Progressive
Bits/(Pixel*Frame) : 0.142
Stream size : 1.14 GiB (81%)
Writing library : x264 core 164 r3103 941cae6 Encoded by stalkerok
Encoding settings : cabac=1 / ref=14 / deblock=1:-3:-3 / analyse=0x3:0x133 / me=umh / subme=11 / psy=1 / psy_rd=1.00:0.00 / mixed_ref=1 / me_range=32 / chroma_me=1 / trellis=2 / 8x8dct=1 / cqm=0 / deadzone=21,11 / fast_pskip=0 / chroma_qp_offset=-2 / threads=16 / lookahead_threads=3 / sliced_threads=0 / nr=0 / decimate=1 / interlaced=0 / bluray_compat=0 / constrained_intra=0 / bframes=15 / b_pyramid=2 / b_adapt=2 / b_bias=0 / direct=3 / weightb=1 / open_gop=0 / weightp=2 / keyint=240 / keyint_min=23 / scenecut=40 / intra_refresh=0 / rc_lookahead=60 / rc=crf / mbtree=0 / crf=19.2 / qcomp=0.65 / qpmin=0 / qpmax=69 / qpstep=4 / vbv_maxrate=50000 / vbv_bufsize=62500 / crf_max=0.0 / nal_hrd=none / filler=0 / ip_ratio=1.40 / pb_ratio=1.30 / aq=3:0.80
Default : Yes
Forced : No

Audio
ID : 2
Format : AC-3
Format/Info : Audio Coding 3
Commercial name : Dolby Digital
Codec ID : A_AC3
Duration : 1 h 24 min
Bit rate mode : Constant
Bit rate : 448 kb/s
Channel(s) : 6 channels
Channel layout : L R C LFE Ls Rs
Sampling rate : 48.0 kHz
Frame rate : 31.250 FPS (1536 SPF)
Compression mode : Lossy
Stream size : 272 MiB (19%)
Language : Russian
Service kind : Complete Main
Default : Yes
Forced : No

Text #1
ID : 3
Format : UTF-8
Codec ID : S_TEXT/UTF8
Codec ID/Info : UTF-8 Plain Text
Duration : 1 h 18 min
Bit rate : 69 b/s
Count of elements : 789
Stream size : 39.7 KiB (0%)
Title : Full
Language : Russian
Default : No
Forced : No

Text #2
ID : 4
Format : UTF-8
Codec ID : S_TEXT/UTF8
Codec ID/Info : UTF-8 Plain Text
Duration : 1 h 22 min
Bit rate : 84 b/s
Count of elements : 979
Stream size : 50.9 KiB (0%)
Title : SDH
Language : Russian
Default : No
Forced : No





Уважаемые пользователи!
Не забывайте оставаться на раздаче после того, как скачали торрент! Помогите скачать и другим - поддержите свободный обмен!

Если у вас НЕ получается скачать торрент файл, то используйте VPN или качайте через "Magnet ссылку"!

VPN вы можете приобрести в нашем интернет-магазине!
Размер: 1.41 GB (1512346487 Bytes)

Гром: Трудное детство (2022) WEB-DLRip-AVC от New-Team | КиноПоиск HD Torrent файл
Гром: Трудное детство (2022) WEB-DLRip-AVC от New-Team | КиноПоиск HD Magnet ссылка
  • Не нравится
  • 0
  • Нравится
Категория: Наши фильмы | Добавил: TOLIAXA | Просмотров: 2 | Комментариев: 0
Уважаемый посетитель, Вы зашли на сайт как незарегистрированный пользователь.
Мы рекомендуем Вам зарегистрироваться либо войти на сайт под своим именем.
Имя:*
E-Mail:
Введите код: *
Кликните на изображение чтобы обновить код, если он неразборчив
Панель пользователя