rutor.info :: Свободный торрент трекер » Мультипликация » Соник Прайм / Sonic Prime [S01] (2022) WEB-DL 1080p | Flarrow Films
  • Не нравится
  • 0
  • Нравится
Категория: Мультипликация | Добавил: TOLIAXA | Просмотров: 1 | Комментариев: 0

Соник Прайм / Sonic Prime [S01] (2022) WEB-DL 1080p | Flarrow Films


Уважаемые пользователи!
Не забывайте оставаться на раздаче после того, как скачали торрент! Помогите скачать и другим - поддержите свободный обмен!

Если у вас НЕ получается скачать торрент файл, то используйте VPN или качайте через "Magnet ссылку"!

VPN вы можете приобрести в нашем интернет-магазине!
Размер: 6.80 GB (7298107030 Bytes)

Соник Прайм  / Sonic Prime [S01] (2022) WEB-DL 1080p | Flarrow Films Torrent файл
Соник Прайм  / Sonic Prime [S01] (2022) WEB-DL 1080p | Flarrow Films Magnet ссылка

Соник Прайм  / Sonic Prime [S01] (2022) WEB-DL 1080p | Flarrow Films
⇒ Основная информация:
Информация о фильме
Название: Соник Прайм
Оригинальное название: Sonic Prime
Год выхода: 2022
Жанр: мультфильм, фантастика, фэнтези, боевик, мелодрама, комедия, приключения, семейный
Режиссер: Эрик Висе, Kiran Sangherra
В ролях: Девен Кристиан Мак, Эшли Болл, Adam Nurada, Брайан Драммонд, Шеннон Чан-Кент, Иэн Хэнлин, Кадзуми Эванс, Винсент Тонг

О фильме:
После битвы с доктором Эггманом, расколовшей Вселенную, Соник мчится по параллельным мирам, чтобы найти своих друзей и спасти мир.




Страна: США, Канада, Япония
Продолжительность: ~00:25:00-00:43:00
Перевод: Профессиональный (многоголосый, закадровый) | Flarrow Films

Роли озвучивали: Денис Кузьмичёв, Ахилл Намазов, Рина Чернышова, Рута Няттиева, Андрей Маслов, Илья Алексеев и Алина Лихачёва

Файл
Формат: MKV
Кодек: MPEG-4 AVC
Качество: WEB-DL 1080
Видео: 1920х1080, ~ 4 578 kb/s, 23.976 FPS, 8 bits
Аудио: AC-3, 192 kb/s, 2 channels, 48.0 kHz
Субтитры: русские (отключаемые UTF-8)


MediaInfo


General
Unique ID : 322916069548318812849545737393695258372 (0xF2EF5F6EF2E2713AE534F64AC7FE7704)
Complete name : C:FlarrowSonic.Prime.S01.1080p.Flarrow.FilmsSonic.Prime.S01E01.mkv
Format : Matroska
Format version : Version 4
File size : 1.45 GiB
Duration : 43 min 26 s
Overall bit rate mode : Variable
Overall bit rate : 4 772 kb/s
Encoded date : UTC 2022-12-20 14:56:25
Writing application : mkvmerge v32.0.0 ('Astral Progressions') 64-bit
Writing library : libebml v1.3.7 + libmatroska v1.5.0

Video
ID : 1
Format : AVC
Format/Info : Advanced Video Codec
Format profile : Main@L4
Format settings : CABAC / 3 Ref Frames
Format settings, CABAC : Yes
Format settings, Reference : 3 frames
Codec ID : V_MPEG4/ISO/AVC
Duration : 43 min 26 s
Bit rate mode : Variable
Bit rate : 4 578 kb/s
Nominal bit rate : 5 000 kb/s
Maximum bit rate : 7 500 kb/s
Width : 1 920 pixels
Height : 1 080 pixels
Display aspect ratio : 16:9
Frame rate mode : Constant
Frame rate : 23.976 (24000/1001) FPS
Color space : YUV
Chroma subsampling : 4:2:0
Bit depth : 8 bits
Scan type : Progressive
Bits/(Pixel*Frame) : 0.092
Stream size : 1.39 GiB (96%)
Writing library : x264 core 148 r2727 7d026e8
Encoding settings : cabac=1 / ref=3 / deblock=1:0:0 / analyse=0x1:0x111 / me=umh / subme=10 / psy=1 / psy_rd=1.00:0.00 / mixed_ref=1 / me_range=24 / chroma_me=1 / trellis=2 / 8x8dct=0 / cqm=0 / deadzone=21,11 / fast_pskip=1 / chroma_qp_offset=-2 / threads=8 / lookahead_threads=1 / sliced_threads=0 / nr=0 / decimate=1 / interlaced=0 / bluray_compat=0 / stitchable=1 / constrained_intra=0 / bframes=2 / b_pyramid=0 / b_adapt=2 / b_bias=0 / direct=3 / weightb=1 / open_gop=0 / weightp=2 / keyint=48 / keyint_min=25 / scenecut=0 / intra_refresh=0 / rc_lookahead=48 / rc=2pass / mbtree=1 / bitrate=5000 / ratetol=1.0 / qcomp=0.50 / qpmin=6 / qpmax=51 / qpstep=4 / cplxblur=20.0 / qblur=0.5 / vbv_maxrate=7500 / vbv_bufsize=10000 / nal_hrd=vbr / filler=0 / ip_ratio=1.40 / aq=1:1.00
Language : English
Default : Yes
Forced : No

Audio
ID : 2
Format : AC-3
Format/Info : Audio Coding 3
Commercial name : Dolby Digital
Codec ID : A_AC3
Duration : 43 min 26 s
Bit rate mode : Constant
Bit rate : 192 kb/s
Channel(s) : 2 channels
Channel layout : L R
Sampling rate : 48.0 kHz
Frame rate : 31.250 FPS (1536 SPF)
Compression mode : Lossy
Stream size : 59.7 MiB (4%)
Service kind : Complete Main
Default : Yes
Forced : No

Text
ID : 3
Format : UTF-8
Codec ID : S_TEXT/UTF8
Codec ID/Info : UTF-8 Plain Text
Duration : 39 min 12 s
Bit rate : 89 b/s
Count of elements : 474
Stream size : 25.8 KiB (0%)
Default : Yes
Forced : No




Скриншоты





Релиз от: Flarrow Films
Примечание: Релиз без рекламы



Уважаемые пользователи!
Не забывайте оставаться на раздаче после того, как скачали торрент! Помогите скачать и другим - поддержите свободный обмен!

Если у вас НЕ получается скачать торрент файл, то используйте VPN или качайте через "Magnet ссылку"!

VPN вы можете приобрести в нашем интернет-магазине!
Размер: 6.80 GB (7298107030 Bytes)

Соник Прайм  / Sonic Prime [S01] (2022) WEB-DL 1080p | Flarrow Films Torrent файл
Соник Прайм  / Sonic Prime [S01] (2022) WEB-DL 1080p | Flarrow Films Magnet ссылка
  • Не нравится
  • 0
  • Нравится
Категория: Мультипликация | Добавил: TOLIAXA | Просмотров: 1 | Комментариев: 0
Уважаемый посетитель, Вы зашли на сайт как незарегистрированный пользователь.
Мы рекомендуем Вам зарегистрироваться либо войти на сайт под своим именем.
Имя:*
E-Mail:
Введите код: *
Кликните на изображение чтобы обновить код, если он неразборчив
Панель пользователя