rutor.info :: Свободный торрент трекер » Мультипликация » Большое путешествие. Специальная доставка (2022) WEB-DLRip 720p от DoMiNo
  • Не нравится
  • 0
  • Нравится
Категория: Мультипликация | Добавил: TOLIAXA | Просмотров: 11 | Комментариев: 0

Большое путешествие. Специальная доставка (2022) WEB-DLRip 720p от DoMiNo


Уважаемые пользователи!
Не забывайте оставаться на раздаче после того, как скачали торрент! Помогите скачать и другим - поддержите свободный обмен!

Если у вас НЕ получается скачать торрент файл, то используйте VPN или качайте через "Magnet ссылку"!

VPN вы можете приобрести в нашем интернет-магазине!
Размер: 1.80 GB (1935680936 Bytes)

Большое путешествие. Специальная доставка (2022) WEB-DLRip 720p от DoMiNo Torrent файл
Большое путешествие. Специальная доставка (2022) WEB-DLRip 720p от DoMiNo Magnet ссылка

Большое путешествие. Специальная доставка (2022) WEB-DLRip 720p от DoMiNo
⇒ Основная информация:
Информация о фильме
Название: Большое путешествие. Специальная доставка
Год выхода: 2022
Жанр: Мультфильм, приключения
Режиссер: Наталья Нилова, Василий Ровенский
В ролях: Диомид Виноградов, Станислав Стрелков, Филипп Лебедев, Ирина Киреева, Антон Эльдаров, Александр Гаврилин, Прохор Чеховской, Алексей Войтюк, Валерий Сторожик, Василиса Сорокина

О фильме:
Прошло время с тех пор, как заяц Оскар и медведь Мик-Мик в компании своих друзей вернули домой маленького панду. С тех пор жили они спокойно и размеренно. Мик-Мик заботился о своих пчелах, а Оскар организовал в лесу американские горки. И вот однажды к берегу Мик-Мика прибивает корзину с малышом гризли. Кто-то снова перепутал адреса, а разбираться с этим придется Мик-Мику и Оскару. В компании друзей они отправляются в новое путешествие - теперь, чтобы вернуть домой малыша гризли.



Страна: Россия
Студия: ООО «Лицензионные бренды», План 9
Продолжительность: 01:30:14
Язык: Русский

Файл
Формат: Matroska
Качество: WEB-DLRip 720p
Видео: 1280x536 at 24.000 fps, x264@L4.1, ~2410 kbps
Аудио: AC3, 6 ch, ~448 kbps - | Русский |
Субтитры: Отсутствуют

***Рип от: -=DoMiNo=-




M/I
General
Unique ID : 198758196437728850311611198336515673007 (0x95876FAC30FF8DB409A4C1F2810F8BAF)
Complete name : K:Большое.путешествие.Специальная доставка.2022.WEB-DLRip.720p.x264.mkv
Format : Matroska
Format version : Version 4
File size : 1.80 GiB
Duration : 1 h 30 min
Overall bit rate : 2 860 kb/s
Movie name : Большое.путешествие.Специальная доставка.2022.WEB-DLRip.720p.x264
Encoded date : UTC 2022-12-09 17:06:31
Writing application : mkvmerge v72.0.0 ('Minuano (Six-eight)') 64-bit
Writing library : libebml v1.4.4 + libmatroska v1.7.1
Cover : Yes
Attachments : cover.jpg / small_cover.jpg

Video
ID : 1
Format : AVC
Format/Info : Advanced Video Codec
Format profile : High@L4.1
Format settings : CABAC / 12 Ref Frames
Format settings, CABAC : Yes
Format settings, Reference : 12 frames
Codec ID : V_MPEG4/ISO/AVC
Duration : 1 h 30 min
Bit rate : 2 410 kb/s
Width : 1 280 pixels
Height : 536 pixels
Display aspect ratio : 2.40:1
Frame rate mode : Constant
Frame rate : 24.000 FPS
Color space : YUV
Chroma subsampling : 4:2:0
Bit depth : 8 bits
Scan type : Progressive
Bits/(Pixel*Frame) : 0.146
Stream size : 1.52 GiB (84%)
Title : -=DoMiNo=-
Writing library : x264 core 164 r3099+55M 141af3f t_mod_New | by -=DoMiNo=- | X86_64
Encoding settings : cabac=1 / ref=12 / deblock=1:-2:-1 / analyse=0x3:0x133 / me=umh / subme=9 / psy=1 / fade_compensate=0.00 / psy_rd=1.00:0.15 / mixed_ref=1 / me_range=32 / chroma_me=1 / trellis=2 / 8x8dct=1 / cqm=0 / deadzone=21,11 / fast_pskip=0 / chroma_qp_offset=-3 / threads=17 / lookahead_threads=4 / sliced_threads=0 / nr=0 / decimate=1 / interlaced=0 / bluray_compat=0 / constrained_intra=0 / fgo=0 / bframes=14 / b_pyramid=2 / b_adapt=2 / b_bias=0 / direct=1 / weightb=1 / open_gop=0 / weightp=2 / keyint=250 / keyint_min=24 / scenecut=40 / intra_refresh=0 / rc_lookahead=60 / rc=crf / mbtree=0 / crf=22.0000 / qcomp=0.70 / qpmin=0:0:0 / qpmax=69:69:69 / qpstep=4 / vbv_maxrate=50000 / vbv_bufsize=62500 / crf_max=0.0 / nal_hrd=none / filler=0 / ip_ratio=1.35 / pb_ratio=1.25 / aq=3:1.00 / aq-sensitivity=10.00 / aq-factor=1.00:1.00:1.00 / aq2=0 / aq3=0
Language : Russian
Default : Yes
Forced : No
Color range : Limited
Matrix coefficients : BT.709

Audio
ID : 2
Format : AC-3
Format/Info : Audio Coding 3
Commercial name : Dolby Digital
Codec ID : A_AC3
Duration : 1 h 30 min
Bit rate mode : Constant
Bit rate : 448 kb/s
Channel(s) : 6 channels
Channel layout : L R C LFE Ls Rs
Sampling rate : 48.0 kHz
Frame rate : 31.250 FPS (1536 SPF)
Compression mode : Lossy
Stream size : 289 MiB (16%)
Language : Russian
Service kind : Complete Main
Default : Yes
Forced : Yes

Menu
00:00:00.000 : en:Глава 01
00:10:00.000 : en:Глава 02
00:20:00.000 : en:Глава 03
00:30:00.000 : en:Глава 04
00:40:00.000 : en:Глава 05
00:50:00.000 : en:Глава 06
01:00:00.000 : en:Глава 07
01:10:00.000 : en:Глава 08
01:20:00.000 : en:Глава 09
01:30:00.000 : en:Глава 10
Уважаемые пользователи!
Не забывайте оставаться на раздаче после того, как скачали торрент! Помогите скачать и другим - поддержите свободный обмен!

Если у вас НЕ получается скачать торрент файл, то используйте VPN или качайте через "Magnet ссылку"!

VPN вы можете приобрести в нашем интернет-магазине!
Размер: 1.80 GB (1935680936 Bytes)

Большое путешествие. Специальная доставка (2022) WEB-DLRip 720p от DoMiNo Torrent файл
Большое путешествие. Специальная доставка (2022) WEB-DLRip 720p от DoMiNo Magnet ссылка
  • Не нравится
  • 0
  • Нравится
Категория: Мультипликация | Добавил: TOLIAXA | Просмотров: 11 | Комментариев: 0
Уважаемый посетитель, Вы зашли на сайт как незарегистрированный пользователь.
Мы рекомендуем Вам зарегистрироваться либо войти на сайт под своим именем.
Имя:*
E-Mail:
Введите код: *
Кликните на изображение чтобы обновить код, если он неразборчив
Панель пользователя