rutor.info :: Свободный торрент трекер » Мультипликация » Астерикс и тайное зелье / Astérix: Le secret de la potion magique (2018) BDRip 1080p | Лицензия
  • Не нравится
  • 0
  • Нравится
Категория: Мультипликация | Добавил: TOLIAXA | Просмотров: 23 | Комментариев: 0

Астерикс и тайное зелье / Astérix: Le secret de la potion magique (2018) BDRip 1080p | Лицензия


Уважаемые пользователи!
Не забывайте оставаться на раздаче после того, как скачали торрент! Помогите скачать и другим - поддержите свободный обмен!

Если у вас НЕ получается скачать торрент файл, то используйте VPN или качайте через "Magnet ссылку"!

VPN вы можете приобрести в нашем интернет-магазине!
Размер: 6.84 GB (7344810764 Bytes)

Астерикс и тайное зелье / Astérix: Le secret de la potion magique (2018) BDRip 1080p | Лицензия Torrent файл
Астерикс и тайное зелье / Astérix: Le secret de la potion magique (2018) BDRip 1080p | Лицензия Magnet ссылка

Астерикс и тайное зелье / Astérix: Le secret de la potion magique (2018) BDRip 1080p | Лицензия
⇒ Основная информация:
Информация о фильме
Название: Астерикс и тайное зелье
Оригинальное название: Astérix: Le secret de la potion magique
Год выхода: 2018
Жанр: Мультфильм, фэнтези, семейный
Страна: Франция, Бельгия
Перевод: Дублированный | Лицензия BD RUS
Продолжительность: 01:24:55
Режиссеры: Александр Астье, Луи Клиши
В ролях: Кристиан Клавье, Гийом Бриа, Алекс Лутц, Александр Астье, Эли Семун, Даниэль Месгиш, Бернар Алан, Франсуа Морель, Лионель Астье, Флоренс Форести и др.

О фильме: Могучие галлы издревле черпали силу в секретном напитке, который готовил великий старец. Но пришла беда, откуда не ждали – почтенный друид свалился с дерева и сломал ногу. Теперь Астериксу и Обеликсу предстоит отправиться в опасное путешествие, чтобы отыскать нового друида, достойного постичь рецепт тайного зелья.



Файл
Качество: BDRip 1080p
Видео: x264, 1920x804, ~8554 kbps, 24,000 fps
Звук#1: русский, DTS, 5.1 ch, 48 kHz, 1509 kbps | Лицензия
Звук#2: русский, AC3, 5.1 ch, 48 kHz, 640 kbps | Лицензия
Звук#3: украинский, AC3, 5.1 ch, 48 kHz, 384 kbps | дубляж
Звук#4: французский, AC3, 5.1 ch, 48 kHz, 448 kbps | оригинал
Субтитры: русские (полные)

MI
Общее
Уникальный идентификатор : 63037710904565894449852837427957272338 (0x2F6C9F1AFEEB7D25ACCC71CE66B10F12)
Полное имя : E:TorrentAsteriksITajnoeZeleBDRip1080p.mkv
Формат : Matroska
Версия формата : Version 4
Размер файла : 6,84 Гбайт
Продолжительность : 1 ч. 24 м.
Общий поток : 11,5 Мбит/сек
Дата кодирования : UTC 2022-12-10 10:34:36
Программа кодирования : mkvmerge v64.0.0 ('Willows') 64-bit
Библиотека кодирования : libebml v1.4.2 + libmatroska v1.6.4

Видео
Идентификатор : 1
Формат : AVC
Формат/Информация : Advanced Video Codec
Профиль формата : High@L4.1
Настройки формата : CABAC / 5 Ref Frames
Параметр CABAC формата : Да
Параметр RefFrames формата : 5 кадров
Идентификатор кодека : V_MPEG4/ISO/AVC
Продолжительность : 1 ч. 24 м.
Битрейт : 8 554 Кбит/сек
Ширина : 1 920 пикселей
Высота : 804 пикселя
Соотношение сторон : 2,40:1
Режим частоты кадров : Постоянный
Частота кадров : 24,000 кадра/сек
Цветовое пространство : YUV
Субдискретизация насыщенности : 4:2:0
Битовая глубина : 8 бит
Тип развёртки : Прогрессивная
Бит/(Пиксели*Кадры) : 0.231
Размер потока : 5,07 Гбайт (74%)
Заголовок : Sisendrovich(R)
Библиотека кодирования : x264 core 164 r3081 19856cc
Настройки программы : cabac=1 / ref=5 / deblock=1:-1:-1 / analyse=0x3:0x133 / me=tesa / subme=11 / psy=1 / psy_rd=1.00:0.00 / mixed_ref=1 / me_range=32 / chroma_me=1 / trellis=2 / 8x8dct=1 / cqm=0 / deadzone=21,11 / fast_pskip=0 / chroma_qp_offset=-2 / threads=12 / lookahead_threads=3 / sliced_threads=0 / nr=0 / decimate=0 / interlaced=0 / bluray_compat=0 / constrained_intra=0 / bframes=12 / b_pyramid=2 / b_adapt=2 / b_bias=0 / direct=3 / weightb=1 / open_gop=0 / weightp=2 / keyint=240 / keyint_min=23 / scenecut=40 / intra_refresh=0 / rc_lookahead=60 / rc=2pass / mbtree=0 / bitrate=8554 / ratetol=1.0 / qcomp=0.70 / qpmin=0 / qpmax=69 / qpstep=4 / cplxblur=20.0 / qblur=0.5 / vbv_maxrate=62500 / vbv_bufsize=78125 / nal_hrd=none / filler=0 / ip_ratio=1.40 / pb_ratio=1.30 / aq=3:0.80
Язык : French
Default : Да
Forced : Нет
Цветовой диапазон : Limited
Основные цвета : BT.709
Характеристики трансфера : BT.709
Коэффициенты матрицы : BT.709

Аудио #1
Идентификатор : 2
Формат : DTS
Формат/Информация : Digital Theater Systems
Идентификатор кодека : A_DTS
Продолжительность : 1 ч. 24 м.
Вид битрейта : Постоянный
Битрейт : 1 509 Кбит/сек
Каналы : 6 каналов
Channel layout : C L R Ls Rs LFE
Частота : 48,0 КГц
Частота кадров : 93,750 кадра/сек (512 SPF)
Битовая глубина : 24 бит
Метод сжатия : С потерями
Размер потока : 916 Мбайт (13%)
Заголовок : rusDTS
Язык : Russian
Default : Да
Forced : Нет

Аудио #2
Идентификатор : 3
Формат : AC-3
Формат/Информация : Audio Coding 3
Коммерческое название : Dolby Digital
Идентификатор кодека : A_AC3
Продолжительность : 1 ч. 24 м.
Вид битрейта : Постоянный
Битрейт : 640 Кбит/сек
Каналы : 6 каналов
Channel layout : L R C LFE Ls Rs
Частота : 48,0 КГц
Частота кадров : 31,250 кадров/сек (1536 SPF)
Метод сжатия : С потерями
Размер потока : 389 Мбайт (6%)
Заголовок : rusAC3
Язык : Russian
Default : Нет
Forced : Нет

Аудио #3
Идентификатор : 4
Формат : AC-3
Формат/Информация : Audio Coding 3
Коммерческое название : Dolby Digital
Идентификатор кодека : A_AC3
Продолжительность : 1 ч. 24 м.
Вид битрейта : Постоянный
Битрейт : 384 Кбит/сек
Каналы : 6 каналов
Channel layout : L R C LFE Ls Rs
Частота : 48,0 КГц
Частота кадров : 31,250 кадров/сек (1536 SPF)
Метод сжатия : С потерями
Размер потока : 233 Мбайт (3%)
Заголовок : ukr
Язык : Ukrainian
Default : Нет
Forced : Нет

Аудио #4
Идентификатор : 5
Формат : AC-3
Формат/Информация : Audio Coding 3
Коммерческое название : Dolby Digital
Идентификатор кодека : A_AC3
Продолжительность : 1 ч. 24 м.
Вид битрейта : Постоянный
Битрейт : 448 Кбит/сек
Каналы : 6 каналов
Channel layout : L R C LFE Ls Rs
Частота : 48,0 КГц
Частота кадров : 31,250 кадров/сек (1536 SPF)
Метод сжатия : С потерями
Размер потока : 272 Мбайт (4%)
Заголовок : Fre
Язык : French
Default : Нет
Forced : Нет

Текст
Идентификатор : 6
Формат : UTF-8
Идентификатор кодека : S_TEXT/UTF8
Идентификатор кодека/Информация : UTF-8 Plain Text
Продолжительность : 1 ч. 17 м.
Битрейт : 120 бит/сек
Count of elements : 921
Размер потока : 68,6 Кбайт (0%)
Заголовок : rusFull
Язык : Russian
Default : Нет
Forced : Нет

Меню
00:00:00.000 : fr:Глава 01
00:06:16.042 : fr:Глава 02
00:15:43.250 : fr:Глава 03
00:21:45.167 : fr:Глава 04
00:28:47.792 : fr:Глава 05
00:35:00.000 : fr:Глава 06
00:42:39.458 : fr:Глава 07
00:50:30.333 : fr:Глава 08
00:57:33.708 : fr:Глава 09
01:04:05.458 : fr:Глава 10
01:13:32.000 : fr:Глава 11
01:21:07.333 : fr:Глава 12
Скриншоты


Рип и релиз от:
Уважаемые пользователи!
Не забывайте оставаться на раздаче после того, как скачали торрент! Помогите скачать и другим - поддержите свободный обмен!

Если у вас НЕ получается скачать торрент файл, то используйте VPN или качайте через "Magnet ссылку"!

VPN вы можете приобрести в нашем интернет-магазине!
Размер: 6.84 GB (7344810764 Bytes)

Астерикс и тайное зелье / Astérix: Le secret de la potion magique (2018) BDRip 1080p | Лицензия Torrent файл
Астерикс и тайное зелье / Astérix: Le secret de la potion magique (2018) BDRip 1080p | Лицензия Magnet ссылка
  • Не нравится
  • 0
  • Нравится
Категория: Мультипликация | Добавил: TOLIAXA | Просмотров: 23 | Комментариев: 0
Уважаемый посетитель, Вы зашли на сайт как незарегистрированный пользователь.
Мы рекомендуем Вам зарегистрироваться либо войти на сайт под своим именем.
Имя:*
E-Mail:
Введите код: *
Кликните на изображение чтобы обновить код, если он неразборчив
Панель пользователя