rutor.info :: Свободный торрент трекер » Зарубежные сериалы » Эхо-3 / Echo 3 [S01] (2022) WEB-DL 720p | HDrezka Studio, Iyuno-SDI Group
  • Не нравится
  • 0
  • Нравится
Категория: Зарубежные сериалы | Добавил: TOLIAXA | Просмотров: 21 | Комментариев: 0

Эхо-3 / Echo 3 [S01] (2022) WEB-DL 720p | HDrezka Studio, Iyuno-SDI Group


Уважаемые пользователи!
Не забывайте оставаться на раздаче после того, как скачали торрент! Помогите скачать и другим - поддержите свободный обмен!

Если у вас НЕ получается скачать торрент файл, то используйте VPN или качайте через "Magnet ссылку"!

VPN вы можете приобрести в нашем интернет-магазине!
Размер: 17.86 GB (19176499460 Bytes)

Эхо-3 / Echo 3 [S01] (2022) WEB-DL 720p | HDrezka Studio, Iyuno-SDI Group Torrent файл
Эхо-3 / Echo 3 [S01] (2022) WEB-DL 720p | HDrezka Studio, Iyuno-SDI Group Magnet ссылка

Эхо-3 / Echo 3 [S01] (2022) WEB-DL 720p | HDrezka Studio, Iyuno-SDI Group
⇒ Основная информация:
Информация о фильме
Название: Эхо-3
Оригинальное название: Echo 3
Год выхода: 2022
Жанр: боевик, триллер, драма
Режиссер: Пабло Траперо, Марк Боал, Клаудия Льоса
В ролях: Люк Эванс, Михил Хёйсман, Джессика Коллинз, Джеймс Удом, Элизабет Энвейс, Мария дель Розарио, Кэтрин Хьюз, Падрик Шейдек, Хайме Лопес, Доминик Бёрджесс, Мариана Новак, Патч Дарра, Хуан Пабло Раба, Карлос Бардем

О фильме:
Когда блестящая учёная Эмбер Чесборо пропадает на границе Колумбии и Венесуэлы, её брат и муж — элитные спецназовцы армии США — пытаются найти её на фоне партизанской войны и узнают, что у Эмбер есть тайны.




Страна: США
Студия: Apple, Keshet Studios, Keshet TV
Продолжительность: ~00:55:00 серия
Перевод 1: Профессиональный (многоголосый, закадровый) HDrezka Studio
Перевод 2: Профессиональный (дублированный) Iyuno-SDI Group по заказу Apple TV+

Файл
Кодек: MKV
Качество: WEB-DL 720p
Видео: AVC, 1482x620 (2,40:1), 2 840 kbps (0.129 b/px), 23,976 fps
Звук:
Аудио #1: AC3, 448 kbps (CBR), 48.0 KHz , 6 ch, Russian - HDRezka Studio
Аудио #2: E-AC-3, 768 kbps (CBR), 48.0 KHz, 6 ch, Russian - Дубляж, Iyuno-SDI Group по заказу Apple TV+
Аудио #3: E-AC-3, 768 kbps (CBR), 48.0 KHz, 6 ch, English
Субтитры:
Russian (Forced, Full ) , English


РЕКЛАМЫ НЕТ

За дублированную дорожку спасибо Wilmots

Дополнительная информация
Кто будет смотреть в дублированном переводе включайте форсированные субтитры № 2 , так как есть места не переведенные


MediaInfo
Общее
Уникальный идентификатор : 300219083941180169588028851264733828571 (0xE1DC17A528CE3F22E36DBE8DB717D5DB)
Полное имя : D:фильмы и сериалыEcho.3.S01.720pEcho.3.S01E01.720p.mkv
Формат : Matroska
Версия формата : Version 4
Размер файла : 1,96 Гбайт
Продолжительность : 58 м. 7 с.
Общий поток : 4 827 Кбит/сек
Дата кодирования : UTC 2022-11-24 13:53:04
Программа кодирования : mkvmerge v35.0.0 ('All The Love In The World') 64-bit
Библиотека кодирования : libebml v1.3.9 + libmatroska v1.5.2

Видео
Идентификатор : 1
Формат : AVC
Формат/Информация : Advanced Video Codec
Профиль формата : High@L3.2
Настройки формата : CABAC / 5 Ref Frames
Параметр CABAC формата : Да
Параметр RefFrames формата : 5 кадров
Идентификатор кодека : V_MPEG4/ISO/AVC
Продолжительность : 58 м. 7 с.
Битрейт : 2 840 Кбит/сек
Ширина : 1 482 пикселя
Высота : 620 пикселей
Соотношение сторон : 2,40:1
Режим частоты кадров : Постоянный
Частота кадров : 23,976 (24000/1001) кадра/сек
Цветовое пространство : YUV
Субдискретизация насыщенности : 4:2:0
Битовая глубина : 8 бит
Тип развёртки : Прогрессивная
Бит/(Пиксели*Кадры) : 0.129
Размер потока : 1,15 Гбайт (59%)
Default : Да
Forced : Нет
Цветовой диапазон : Limited
Основные цвета : BT.709
Характеристики трансфера : BT.709
Коэффициенты матрицы : BT.709

Аудио #1
Идентификатор : 2
Формат : AC-3
Формат/Информация : Audio Coding 3
Коммерческое название : Dolby Digital
Идентификатор кодека : A_AC3
Продолжительность : 58 м. 7 с.
Вид битрейта : Постоянный
Битрейт : 448 Кбит/сек
Каналы : 6 каналов
Channel layout : L R C LFE Ls Rs
Частота : 48,0 КГц
Частота кадров : 31,250 кадров/сек (1536 SPF)
Метод сжатия : С потерями
Размер потока : 186 Мбайт (9%)
Заголовок : MVO - HDrezka Studio
Язык : Russian
Service kind : Complete Main
Default : Да
Forced : Нет

Аудио #2
Идентификатор : 3
Формат : E-AC-3 JOC
Формат/Информация : Enhanced AC-3 with Joint Object Coding
Коммерческое название : Dolby Digital Plus with Dolby Atmos
Идентификатор кодека : A_EAC3
Продолжительность : 58 м. 7 с.
Вид битрейта : Постоянный
Битрейт : 768 Кбит/сек
Каналы : 6 каналов
Channel layout : L R C LFE Ls Rs
Частота : 48,0 КГц
Частота кадров : 31,250 кадров/сек (1536 SPF)
Метод сжатия : С потерями
Размер потока : 319 Мбайт (16%)
Заголовок : DUB
Язык : Russian
Service kind : Complete Main
Default : Нет
Forced : Нет
Complexity index : 16
Number of dynamic objects : 15
Bed channel count : 1 канал
Bed channel configuration : LFE

Аудио #3
Идентификатор : 4
Формат : E-AC-3 JOC
Формат/Информация : Enhanced AC-3 with Joint Object Coding
Коммерческое название : Dolby Digital Plus with Dolby Atmos
Идентификатор кодека : A_EAC3
Продолжительность : 58 м. 7 с.
Вид битрейта : Постоянный
Битрейт : 768 Кбит/сек
Каналы : 6 каналов
Channel layout : L R C LFE Ls Rs
Частота : 48,0 КГц
Частота кадров : 31,250 кадров/сек (1536 SPF)
Метод сжатия : С потерями
Размер потока : 319 Мбайт (16%)
Язык : English
Service kind : Complete Main
Default : Нет
Forced : Нет
Complexity index : 16
Number of dynamic objects : 15
Bed channel count : 1 канал
Bed channel configuration : LFE

Текст #1
Идентификатор : 5
Формат : UTF-8
Идентификатор кодека : S_TEXT/UTF8
Идентификатор кодека/Информация : UTF-8 Plain Text
Продолжительность : 53 м. 43 с.
Битрейт : 4 бит/сек
Count of elements : 45
Размер потока : 1,84 Кбайт (0%)
Заголовок : fors HDR
Язык : Russian
Default : Да
Forced : Нет

Текст #2
Идентификатор : 6
Формат : UTF-8
Идентификатор кодека : S_TEXT/UTF8
Идентификатор кодека/Информация : UTF-8 Plain Text
Продолжительность : 56 м. 34 с.
Битрейт : 3 бит/сек
Count of elements : 33
Размер потока : 1,33 Кбайт (0%)
Заголовок : Forced Apple TV+
Язык : Russian
Default : Нет
Forced : Нет

Текст #3
Идентификатор : 7
Формат : UTF-8
Идентификатор кодека : S_TEXT/UTF8
Идентификатор кодека/Информация : UTF-8 Plain Text
Продолжительность : 57 м. 54 с.
Битрейт : 69 бит/сек
Count of elements : 562
Размер потока : 29,3 Кбайт (0%)
Язык : Russian
Default : Нет
Forced : Нет

Текст #4
Идентификатор : 8
Формат : UTF-8
Идентификатор кодека : S_TEXT/UTF8
Идентификатор кодека/Информация : UTF-8 Plain Text
Продолжительность : 56 м. 34 с.
Битрейт : 90 бит/сек
Count of elements : 702
Размер потока : 37,4 Кбайт (0%)
Заголовок : SDH
Язык : Russian
Default : Нет
Forced : Нет

Текст #5
Идентификатор : 9
Формат : UTF-8
Идентификатор кодека : S_TEXT/UTF8
Идентификатор кодека/Информация : UTF-8 Plain Text
Продолжительность : 53 м. 47 с.
Битрейт : 49 бит/сек
Count of elements : 543
Размер потока : 19,5 Кбайт (0%)
Язык : English
Default : Нет
Forced : Нет



Раздача ведется путем добавления новых серий
Когда раздача ведётся путём добавления новых серий, при каждом добавлении создётся новый торрент. Чтобы начать докачку новой серии, пользователям необходимо сделать следующее:
(1) остановить скачивание,
(2) удалить старый торрент у себя из клиента (старые серии удалять не надо),
(3) скачать новый торрент и запустить его у себя в клиенте вместо старого, при этом указать клиенту путь в старую папку, куда и должно происходить скачивание новых серий.
Ваш клиент при этом должен произвести хеширование (проверку) старой папки (если не производит сам - помогите ему сделать это), и будет докачивать только те серии, которых у вас ещё нет. Старые серии при этом не удаляются, а продолжают раздаваться!
Eсли вы уже удалили старые серии, то предотвратить повторную закачку старых серий можно, отжав галочку в соответствующих местах при запуске нового торрента. По возможности, желательно не удалять старые серии как можно дольше, чтобы релизер не столько продолжал раздавать старые серии, а смог сконцентрироваться на новых.


Скриншоты
Уважаемые пользователи!
Не забывайте оставаться на раздаче после того, как скачали торрент! Помогите скачать и другим - поддержите свободный обмен!

Если у вас НЕ получается скачать торрент файл, то используйте VPN или качайте через "Magnet ссылку"!

VPN вы можете приобрести в нашем интернет-магазине!
Размер: 17.86 GB (19176499460 Bytes)

Эхо-3 / Echo 3 [S01] (2022) WEB-DL 720p | HDrezka Studio, Iyuno-SDI Group Torrent файл
Эхо-3 / Echo 3 [S01] (2022) WEB-DL 720p | HDrezka Studio, Iyuno-SDI Group Magnet ссылка
  • Не нравится
  • 0
  • Нравится
Категория: Зарубежные сериалы | Добавил: TOLIAXA | Просмотров: 21 | Комментариев: 0
Уважаемый посетитель, Вы зашли на сайт как незарегистрированный пользователь.
Мы рекомендуем Вам зарегистрироваться либо войти на сайт под своим именем.
Имя:*
E-Mail:
Введите код: *
Кликните на изображение чтобы обновить код, если он неразборчив
Панель пользователя