rutor.info :: Свободный торрент трекер » Мультипликация » Рик и Морти / Rick and Morty [S06] (2022) WEB-DL 1080p | HDrezka Studio, Audiodrome
  • Не нравится
  • 0
  • Нравится
Категория: Мультипликация | Добавил: TOLIAXA | Просмотров: 0 | Комментариев: 0

Рик и Морти / Rick and Morty [S06] (2022) WEB-DL 1080p | HDrezka Studio, Audiodrome


Уважаемые пользователи!
Не забывайте оставаться на раздаче после того, как скачали торрент! Помогите скачать и другим - поддержите свободный обмен!

Если у вас НЕ получается скачать торрент файл, то используйте VPN или качайте через "Magnet ссылку"!

VPN вы можете приобрести в нашем интернет-магазине!
Размер: -//-

Рик и Морти / Rick and Morty [S06] (2022) WEB-DL 1080p | HDrezka Studio, Audiodrome Torrent файл
Рик и Морти / Rick and Morty [S06] (2022) WEB-DL 1080p | HDrezka Studio, Audiodrome Magnet ссылка

Рик и Морти / Rick and Morty [S06] (2022) WEB-DL 1080p | HDrezka Studio, Audiodrome
⇒ Основная информация:
Рик и Морти | Rick and Morty
Страна: США
Жанр: Мультфильм, комедия, фантастика
Год выпуска: 2022
Режиссёр: Пит Мишелс, Брайан Ньютон, Джон Райс
В ролях: Джастин Ройланд, Крис Парнелл, Спенсер Грэммер, Сара Чок, Кари Уолгрен, Том Кенни, Райан Ридли, Морис ЛаМарш, Брэндон Джонсон, Дэн Хармон

Описание: Анимационное шоу для взрослых, в лучших традициях интеллектуального абсурда. Морти – самый обычный 14-летний подросток, который ссорится с учителями, мечтает о девочках и страдает от школьных хулиганов. Единственное, что делает его особенным, это его дед Рик – гениальный изобретатель и постоянно рыгающий алкоголик. В их мире все по фен-шую: инопланетяне в гараже, коты Шредингера в космосе и мутировавшая бактерия в ведре с вишневым мороженым. Их хобби — путешествовать по галактикам, тусоваться с местными парнями и иногда, по чистой случайности, развязывать инопланетные войны.



Продолжительность серии: ~ 00:23:00
Перевод: Профессиональный (многоголосый закадровый) | HDrezka Studio | Ненормативная лексика
Перевод: Любительский Одноголосый | Audiodrome | Ненормативная лексика

Качество: WEB-DL 1080p
Формат: MKV
Видео: AVC, 1920x1080 (16:9), 23,976 кадра/сек, ~ 8250 Кбит/сек, 0.166 bit/pixel
Аудио Rus: AC3, 48 kHz, 3/2 (L,C,R,l,r) + LFE ch, 448 Кбит/сек | HDrezka Studio 18+
Аудио Rus: AC3, 48,0 kHz, 2 ch, 192 Кбит/сек | Audiodrome 18+
Аудио Ukr: AC3, 48 kHz, 3/2 (L,C,R,l,r) + LFE ch, 384 Кбит/сек | HDrezka Studio 18+
Аудио Eng: AC3, 48 kHz, 3/2 (L,C,R,l,r) + LFE ch, 384 Кбит/сек
Субтитры: Русские (Forced |HDrezka Studio|, Full |Татьяна Грачева|), Украинские (Forced), Английские (Full, SDH)
Релиз: Wentworth_Miller
Примечание: Без рекламы
18+ для зрителей, достигших возраста 18 лет

Подробные технические данные
Общее
Уникальный идентификатор : 39050813850826220646142694640515298088 (0x1D60E9C5D2DCB0D0C384E8ADC11C3328)
Полное имя : D:Rick.and.Morty.S06E01.1080p.HMAX.WEB-DL.RGzsRutrаcker.mkv
Формат : Matroska
Версия формата : Version 4
Размер файла : 1,50 Гбайт
Продолжительность : 22 м. 27 с.
Режим общего битрейта : Переменный
Общий поток : 9 577 Кбит/сек
Название фильма : Rick and Morty 06x01 - Release by Wentworth_Miller
Дата кодирования : UTC 2022-10-04 06:41:52
Программа кодирования : mkvmerge v70.0.0 ('Caught A Lite Sneeze') 64-bit
Библиотека кодирования : libebml v1.4.2 + libmatroska v1.6.4

Видео
Идентификатор : 1
Формат : AVC
Формат/Информация : Advanced Video Codec
Профиль формата : High@L4
Настройки формата : CABAC / 4 Ref Frames
Параметр CABAC формата : Да
Параметр RefFrames формата : 4 кадра
Идентификатор кодека : V_MPEG4/ISO/AVC
Продолжительность : 22 м. 25 с.
Вид битрейта : Переменный
Битрейт : 8 250 Кбит/сек
Максимальный битрейт : 12,4 Мбит/сек
Ширина : 1 920 пикселей
Высота : 1 080 пикселей
Соотношение сторон : 16:9
Режим частоты кадров : Постоянный
Частота кадров : 23,976 (24000/1001) кадра/сек
Цветовое пространство : YUV
Субдискретизация насыщенности : 4:2:0
Битовая глубина : 8 бит
Тип развёртки : Прогрессивная
Бит/(Пиксели*Кадры) : 0.166
Размер потока : 1,28 Гбайт (85%)
Заголовок : Solaricks
Библиотека кодирования : x264 core 157 r2965 861cec4
Настройки программы : cabac=1 / ref=4 / deblock=1:0:0 / analyse=0x3:0x113 / me=hex / subme=7 / psy=1 / psy_rd=1.00:0.00 / mixed_ref=1 / me_range=16 / chroma_me=1 / trellis=1 / 8x8dct=1 / cqm=0 / deadzone=21,11 / fast_pskip=1 / chroma_qp_offset=-2 / threads=34 / lookahead_threads=5 / sliced_threads=0 / nr=0 / decimate=1 / interlaced=0 / bluray_compat=0 / constrained_intra=0 / bframes=3 / b_pyramid=2 / b_adapt=1 / b_bias=0 / direct=1 / weightb=1 / open_gop=0 / weightp=2 / keyint=96 / keyint_min=96 / scenecut=40 / intra_refresh=0 / rc_lookahead=40 / rc=2pass / mbtree=1 / bitrate=8250 / ratetol=1.0 / qcomp=0.60 / qpmin=0 / qpmax=69 / qpstep=4 / cplxblur=20.0 / qblur=0.5 / vbv_maxrate=12375 / vbv_bufsize=6187 / nal_hrd=vbr / filler=0 / ip_ratio=1.40 / aq=1:1.00
Язык : English
Default : Да
Forced : Нет
Цветовой диапазон : Limited
Основные цвета : BT.709
Характеристики трансфера : BT.709
Коэффициенты матрицы : BT.709

Аудио #1
Идентификатор : 2
Формат : AC-3
Формат/Информация : Audio Coding 3
Коммерческое название : Dolby Digital
Идентификатор кодека : A_AC3
Продолжительность : 22 м. 25 с.
Вид битрейта : Постоянный
Битрейт : 448 Кбит/сек
Каналы : 6 каналов
Channel layout : L R C LFE Ls Rs
Частота : 48,0 КГц
Частота кадров : 31,250 кадров/сек (1536 SPF)
Метод сжатия : С потерями
Размер потока : 71,8 Мбайт (5%)
Заголовок : HDRezka Studio
Язык : Russian
Service kind : Complete Main
Default : Да
Forced : Нет

Аудио #2
Идентификатор : 3
Формат : AC-3
Формат/Информация : Audio Coding 3
Коммерческое название : Dolby Digital
Идентификатор кодека : A_AC3
Продолжительность : 22 м. 27 с.
Вид битрейта : Постоянный
Битрейт : 192 Кбит/сек
Каналы : 2 канала
Channel layout : L R
Частота : 48,0 КГц
Частота кадров : 31,250 кадров/сек (1536 SPF)
Метод сжатия : С потерями
Размер потока : 30,8 Мбайт (2%)
Заголовок : Audiodrome
Язык : Russian
Service kind : Complete Main
Default : Нет
Forced : Нет

Аудио #3
Идентификатор : 4
Формат : AC-3
Формат/Информация : Audio Coding 3
Коммерческое название : Dolby Digital
Идентификатор кодека : A_AC3
Продолжительность : 22 м. 25 с.
Вид битрейта : Постоянный
Битрейт : 384 Кбит/сек
Каналы : 6 каналов
Channel layout : L R C LFE Ls Rs
Частота : 48,0 КГц
Частота кадров : 31,250 кадров/сек (1536 SPF)
Метод сжатия : С потерями
Размер потока : 61,6 Мбайт (4%)
Заголовок : HDRezka Studio
Язык : Ukrainian
Service kind : Complete Main
Default : Нет
Forced : Нет

Аудио #4
Идентификатор : 5
Формат : AC-3
Формат/Информация : Audio Coding 3
Коммерческое название : Dolby Digital
Идентификатор кодека : A_AC3
Продолжительность : 22 м. 25 с.
Вид битрейта : Постоянный
Битрейт : 384 Кбит/сек
Каналы : 6 каналов
Channel layout : L R C LFE Ls Rs
Частота : 48,0 КГц
Частота кадров : 31,250 кадров/сек (1536 SPF)
Метод сжатия : С потерями
Размер потока : 61,6 Мбайт (4%)
Язык : English
Service kind : Complete Main
Default : Нет
Forced : Нет

Текст #1
Идентификатор : 6
Формат : UTF-8
Идентификатор кодека : S_TEXT/UTF8
Идентификатор кодека/Информация : UTF-8 Plain Text
Продолжительность : 20 м. 51 с.
Битрейт : 2 бит/сек
Частота кадров : 0,006 кадр/сек
Count of elements : 7
Размер потока : 433 байт (0%)
Заголовок : Forced
Язык : Russian
Default : Да
Forced : Нет

Текст #2
Идентификатор : 7
Формат : UTF-8
Идентификатор кодека : S_TEXT/UTF8
Идентификатор кодека/Информация : UTF-8 Plain Text
Продолжительность : 22 м. 12 с.
Битрейт : 167 бит/сек
Частота кадров : 0,334 кадр/сек
Count of elements : 445
Размер потока : 27,3 Кбайт (0%)
Язык : Russian
Default : Нет
Forced : Нет

Текст #3
Идентификатор : 8
Формат : UTF-8
Идентификатор кодека : S_TEXT/UTF8
Идентификатор кодека/Информация : UTF-8 Plain Text
Продолжительность : 19 с. 330 мс.
Битрейт : 119 бит/сек
Частота кадров : 0,207 кадр/сек
Count of elements : 4
Размер потока : 289 байт (0%)
Заголовок : Forced
Язык : Ukrainian
Default : Нет
Forced : Нет

Текст #4
Идентификатор : 9
Формат : UTF-8
Идентификатор кодека : S_TEXT/UTF8
Идентификатор кодека/Информация : UTF-8 Plain Text
Продолжительность : 22 м. 11 с.
Битрейт : 107 бит/сек
Частота кадров : 0,291 кадр/сек
Count of elements : 388
Размер потока : 17,5 Кбайт (0%)
Язык : English
Default : Нет
Forced : Нет

Текст #5
Идентификатор : 10
Формат : UTF-8
Идентификатор кодека : S_TEXT/UTF8
Идентификатор кодека/Информация : UTF-8 Plain Text
Продолжительность : 22 м. 15 с.
Битрейт : 107 бит/сек
Частота кадров : 0,413 кадр/сек
Count of elements : 552
Размер потока : 17,5 Кбайт (0%)
Язык : English
Default : Нет
Forced : Нет

Текст #6
Идентификатор : 11
Формат : UTF-8
Идентификатор кодека : S_TEXT/UTF8
Идентификатор кодека/Информация : UTF-8 Plain Text
Продолжительность : 22 м. 15 с.
Битрейт : 113 бит/сек
Частота кадров : 0,450 кадр/сек
Count of elements : 601
Размер потока : 18,5 Кбайт (0%)
Заголовок : SDH
Язык : English
Default : Нет
Forced : Нет

Меню
00:00:00.000 : en:Chapter 1
00:01:47.482 : en:Intro
00:02:15.136 : en:Chapter 2
00:11:44.578 : en:Chapter 3
00:20:53.000 : en:Credits
Скриншоты
Уважаемые пользователи!
Не забывайте оставаться на раздаче после того, как скачали торрент! Помогите скачать и другим - поддержите свободный обмен!

Если у вас НЕ получается скачать торрент файл, то используйте VPN или качайте через "Magnet ссылку"!

VPN вы можете приобрести в нашем интернет-магазине!
Размер: -//-

Рик и Морти / Rick and Morty [S06] (2022) WEB-DL 1080p | HDrezka Studio, Audiodrome Torrent файл
Рик и Морти / Rick and Morty [S06] (2022) WEB-DL 1080p | HDrezka Studio, Audiodrome Magnet ссылка
  • Не нравится
  • 0
  • Нравится
Категория: Мультипликация | Добавил: TOLIAXA | Просмотров: 0 | Комментариев: 0
Уважаемый посетитель, Вы зашли на сайт как незарегистрированный пользователь.
Мы рекомендуем Вам зарегистрироваться либо войти на сайт под своим именем.
Имя:*
E-Mail:
Введите код: *
Кликните на изображение чтобы обновить код, если он неразборчив
Панель пользователя