rutor.info :: Свободный торрент трекер » Мультипликация » Четверо с одного двора (1967) BDRemux 1080p
  • Не нравится
  • 0
  • Нравится
Категория: Мультипликация | Добавил: TOLIAXA | Просмотров: 0 | Комментариев: 0

Четверо с одного двора (1967) BDRemux 1080p


Уважаемые пользователи!
Не забывайте оставаться на раздаче после того, как скачали торрент! Помогите скачать и другим - поддержите свободный обмен!

Если у вас НЕ получается скачать торрент файл, то используйте VPN или качайте через "Magnet ссылку"!

VPN вы можете приобрести в нашем интернет-магазине!
Размер: 2.06 GB (2213147651 Bytes)

Четверо с одного двора (1967) BDRemux 1080p Torrent файл
Четверо с одного двора (1967) BDRemux 1080p Magnet ссылка

Четверо с одного двора (1967) BDRemux 1080p
⇒ Основная информация:
Информация о фильме
Название: Четверо с одного двора
Год выпуска: 1967
Жанр: мультфильм, детский, короткометражка
Режиссер: Инесса Ковалевская


Четверо друзей с одного двора решили поймать крысу.



Страна: СССР
Студия: Союзмультфильм
Продолжительность: 00:09:53
Перевод: Не требуется

Файл
Кодек: H.264
Качество: BDRemux 1080p
Видео: 1920х1080 (16:9), ~29.4 Mbps, 25.000 fps
Аудио: AC3, 6 ch, 448 Kbps - Русский
Субтитры: Нет



MI
General
Unique ID : 15259443949920120075793859415908279970 (0xB7ADCAC47B1845F8AE44F7E8C1BE6A2)
Complete name : D:РЕМУКСЧетверо с одного двора (1967) BDRemux.mkv
Format : Matroska
Format version : Version 4
File size : 2.06 GiB
Duration : 9 min 53 s
Overall bit rate mode : Variable
Overall bit rate : 29.8 Mb/s
Movie name : Четверо с одного двора (1967) BDRemux - #LORDKILL#
Encoded date : UTC 2022-12-26 16:49:24
Writing application : mkvmerge v32.0.0 ('Astral Progressions') 64-bit
Writing library : libebml v1.3.7 + libmatroska v1.5.0

Video
ID : 1
Format : AVC
Format/Info : Advanced Video Codec
Format profile : High@L4.1
Format settings : CABAC / 3 Ref Frames
Format settings, CABAC : Yes
Format settings, Reference : 3 frames
Format settings, GOP : M=3, N=12
Codec ID : V_MPEG4/ISO/AVC
Duration : 9 min 53 s
Bit rate mode : Variable
Bit rate : 29.4 Mb/s
Maximum bit rate : 35.0 Mb/s
Width : 1 920 pixels
Height : 1 080 pixels
Display aspect ratio : 16:9
Frame rate mode : Constant
Frame rate : 25.000 FPS
Standard : NTSC
Color space : YUV
Chroma subsampling : 4:2:0
Bit depth : 8 bits
Scan type : MBAFF
Bits/(Pixel*Frame) : 0.567
Stream size : 2.03 GiB (98%)
Default : Yes
Forced : No
Color range : Limited
Color primaries : BT.709
Transfer characteristics : BT.709
Matrix coefficients : BT.709

Audio
ID : 2
Format : AC-3
Format/Info : Audio Coding 3
Commercial name : Dolby Digital
Codec ID : A_AC3
Duration : 9 min 53 s
Bit rate mode : Constant
Bit rate : 448 kb/s
Channel(s) : 6 channels
Channel layout : L R C LFE Ls Rs
Sampling rate : 48.0 kHz
Frame rate : 31.250 FPS (1536 SPF)
Compression mode : Lossy
Stream size : 31.7 MiB (2%)
Language : Russian
Service kind : Complete Main
Default : Yes
Forced : No
Скриншоты
Уважаемые пользователи!
Не забывайте оставаться на раздаче после того, как скачали торрент! Помогите скачать и другим - поддержите свободный обмен!

Если у вас НЕ получается скачать торрент файл, то используйте VPN или качайте через "Magnet ссылку"!

VPN вы можете приобрести в нашем интернет-магазине!
Размер: 2.06 GB (2213147651 Bytes)

Четверо с одного двора (1967) BDRemux 1080p Torrent файл
Четверо с одного двора (1967) BDRemux 1080p Magnet ссылка
  • Не нравится
  • 0
  • Нравится
Категория: Мультипликация | Добавил: TOLIAXA | Просмотров: 0 | Комментариев: 0
Уважаемый посетитель, Вы зашли на сайт как незарегистрированный пользователь.
Мы рекомендуем Вам зарегистрироваться либо войти на сайт под своим именем.
Имя:*
E-Mail:
Введите код: *
Кликните на изображение чтобы обновить код, если он неразборчив
Панель пользователя