Новости трекера
Апр Новый Адрес: RUTOR.EMPIREG.RU
Ноя Вечная блокировка в России
Окт Путеводитель по RUTOR: Правила, Руководства, Секреты


Скачать Гарем рабов в лабиринте другого мира / Isekai Meikyuu de Harem wo [S01] (2022) BDRemux 1080p от Anikun | L, L2 торрентом бесплатно

Гарем рабов в лабиринте другого мира / Isekai Meikyuu de Harem wo [S01] (2022) BDRemux 1080p от Anikun | L, L2

0

⇒ Основная информация:
Информация о фильме
Название: Гарем рабов в лабиринте другого мира
Оригинальное название: Isekai Meikyuu de Harem wo / Harem in the Labyrinth of Another World / A Harem in a Fantasy World Labyrinth
Год выпуска: 2022
Жанр: Приключения, мелодрама, экшен, фэнтези, романтика, этти, гарем, боевик
Режиссер: Наоюки Тацува
Озвучено: Таку Ясиро, Сиори Идзава, Сиори Миками, Кэнта Миякэ, Кодаи Сакаи, Манабу Сакамаки, Хаято Кимура, Ватару Усами, Нобуюки Кобуси, Хирому Минэта, Рина Хонидзуми, Нодзоми Фуруки, Анна Ямаки, Канэхира Ямамото, Тадаси Миядзава, Микако Идзава, Юки Нагано, Хаято Фудзии, Томохиро Цубои, Эмири Суяма, Эмири Суяма

О фильме: Пытающийся сбежать от реальных проблем, старшеклассник Митио Кага ищет укрытия в интернете и однажды натыкается на сайт, где предлагается создать собственного персонажа. Решив развлечься, Митио долго корпел над необходимыми навыками и статусами. А в самом конце на экране появилось окно с уведомлением: «Сейчас вы будете перемещены в игровой мир. Вы не сможете покинуть его, пока не пройдёте игру до конца. Вы согласны?»
Не задумавшись о серьёзности вопроса, Митио нажал ОК и переместился в мир фэнтези в облике созданного им персонажа. К удивлению Митио, здесь всё по-настоящему: приключения и сексуальные красавицы, голод и бандиты, кровь и смерть. Если Митио хочет вернуться, ему нужно выжить, а пока выживает, он соберёт себе гарем!



Страна: Япония
Студия: Passione
Продолжительность: 12 х ~ 00:23:41
Перевод: Любительский многоголосый AniDUB, SHIZA Project - Viki & Zariko & Leo & eil & DiWilliam, Любительский двухголосый Shikoku Studio - Lonely Dragon & Чаек

Файл
Кодек: H.264
Качество: BDRemux 1080p
Видео: 8 bit, ~ 34500 Кбит/с, 1920x1080
Аудио #1: AC3, 2 ch, 192 Кбит/с - Русский, AniDUB
Аудио #2: AC3, 2 ch, 192 Кбит/с - Русский, SHIZA Project
Аудио #3: AC3, 2 ch, 192 Кбит/с - Русский, Shikoku Studio
Аудио #4: FLAC, 2 ch, ~1350 Кбит/с - Японский
Субтитры: Русские (YakuSub Studio Перевод: Aero), английские (встроенные)





Доп. информация: Японская тв-версия без цензуры 18+
Релиз от: Saint.Oni [Anikun], звук отдельно спасибо DS29028888
⇒ MediaInfo
D:Anikun2022.Isekai.Meikyuu.De.Harem.WoIsekai.Meikyuu.de.Harem.wo.S01E01.Uncensored.BD-Remux.1080p.FLAC.mkv
General
Unique ID : 173575496669924832122105979270882299846 (0x82956CB6D5E8701E974210448C268FC6)
Complete name : D:Anikun2022.Isekai.Meikyuu.De.Harem.WoIsekai.Meikyuu.de.Harem.wo.S01E01.Uncensored.BD-Remux.1080p.FLAC.mkv
Format : Matroska
Format version : Version 2
File size : 5.78 GiB
Duration : 23 min 41 s
Overall bit rate mode : Variable
Overall bit rate : 34.9 Mb/s
Movie name : S01E01-TTGA
Encoded date : UTC 2023-02-20 16:07:00
Writing application : mkvmerge v4.2.0 ('No Talking') сборка от Jul 28 2010 18:38:23
Writing library : libebml v1.0.0 + libmatroska v1.0.0
Cover : Yes
Attachments : cover.jpg
Video #1
ID : 1
Format : AVC
Format/Info : Advanced Video Codec
Format profile : High@L4.1
Format settings : CABAC / 4 Ref Frames
Format settings, CABAC : Yes
Format settings, ReFrames : 4 frames
Muxing mode : Header stripping
Codec ID : V_MPEG4/ISO/AVC
Duration : 23 min 41 s
Bit rate mode : Variable
Maximum bit rate : 40.0 Mb/s
Width : 1 920 pixels
Height : 1 080 pixels
Display aspect ratio : 16:9
Frame rate mode : Constant
Frame rate : 23.976 (24000/1001) FPS
Color space : YUV
Chroma subsampling : 4:2:0
Bit depth : 8 bits
Scan type : Progressive
Title : Presented By EMBER
Default : Yes
Forced : No
Statistics Tags Issue : mkvmerge v69.0.0 ('Day And Age') 64-bit 2023-01-16 05:33:46 / mkvmerge v4.2.0 ('No Talking') сборка от Jul 28 2010 18:38:23 2023-02-20 16:07:00
FromStats_BitRate : 32993099
FromStats_Duration : 00:23:41.087000000
FromStats_FrameCount : 34072
FromStats_StreamSize : 5860758034
Audio #2
ID : 2
Format : AC-3
Format/Info : Audio Coding 3
Muxing mode : Header stripping
Codec ID : A_AC3
Duration : 23 min 41 s
Bit rate mode : Constant
Bit rate : 192 kb/s
Channel(s) : 2 channels
Channel positions : Front: L R
Sampling rate : 48.0 kHz
Frame rate : 31.250 FPS (1536 SPF)
Bit depth : 16 bits
Compression mode : Lossy
Stream size : 32.5 MiB (1%)
Title : AniDUB
Language : Russian
Service kind : Complete Main
Default : Yes
Forced : Yes
Audio #3
ID : 3
Format : AC-3
Format/Info : Audio Coding 3
Muxing mode : Header stripping
Codec ID : A_AC3
Duration : 23 min 41 s
Bit rate mode : Constant
Bit rate : 192 kb/s
Channel(s) : 2 channels
Channel positions : Front: L R
Sampling rate : 48.0 kHz
Frame rate : 31.250 FPS (1536 SPF)
Bit depth : 16 bits
Compression mode : Lossy
Stream size : 32.5 MiB (1%)
Title : Viki, Zariko, Leo, eil, DiWilliam (SHIZA Project)
Language : Russian
Service kind : Complete Main
Default : No
Forced : Yes
Audio #4
ID : 4
Format : AC-3
Format/Info : Audio Coding 3
Muxing mode : Header stripping
Codec ID : A_AC3
Duration : 23 min 41 s
Bit rate mode : Constant
Bit rate : 192 kb/s
Channel(s) : 2 channels
Channel positions : Front: L R
Sampling rate : 48.0 kHz
Frame rate : 31.250 FPS (1536 SPF)
Bit depth : 16 bits
Compression mode : Lossy
Stream size : 32.5 MiB (1%)
Title : Lonely Dragon, Чаек (Shikoku Studio)
Language : Russian
Service kind : Complete Main
Default : No
Forced : Yes
Audio #5
ID : 5
Format : FLAC
Format/Info : Free Lossless Audio Codec
Codec ID : A_FLAC
Duration : 23 min 41 s
Bit rate mode : Variable
Channel(s) : 2 channels
Channel positions : Front: L R
Sampling rate : 48.0 kHz
Bit depth : 24 bits
Writing library : libFLAC 1.2.1 (UTC 2007-09-17)
Language : Japanese
Default : No
Forced : No
Statistics Tags Issue : mkvmerge v69.0.0 ('Day And Age') 64-bit 2023-01-16 05:33:46 / mkvmerge v4.2.0 ('No Talking') сборка от Jul 28 2010 18:38:23 2023-02-20 16:07:00
FromStats_BitRate : 1353078
FromStats_Duration : 00:23:41.090000000
FromStats_FrameCount : 16654
FromStats_StreamSize : 240355774
Text #6
ID : 6
Format : ASS
Codec ID : S_TEXT/ASS
Codec ID/Info : Advanced Sub Station Alpha
Compression mode : Lossless
Language : English
Default : Yes
Forced : No
Statistics Tags Issue : mkvmerge v69.0.0 ('Day And Age') 64-bit 2023-01-16 05:33:46 / mkvmerge v4.2.0 ('No Talking') сборка от Jul 28 2010 18:38:23 2023-02-20 16:07:00
FromStats_BitRate : 219
FromStats_Duration : 00:22:03.090000000
FromStats_FrameCount : 471
FromStats_StreamSize : 36345
⇒ Скриншоты

Уважаемые пользователи!
Не забывайте оставаться на раздаче после того, как скачали торрент! Помогите скачать и другим - поддержите свободный обмен!

Если у вас НЕ получается скачать торрент файл, то используйте VPN или качайте через "Magnet ссылку"!

VPN вы можете приобрести в нашем интернет-магазине!
Размер: 69.32 GB (74436196113 Bytes)

Гарем рабов в лабиринте другого мира / Isekai Meikyuu de Harem wo [S01] (2022) BDRemux 1080p от Anikun | L, L2 Torrent файл

Гарем рабов в лабиринте другого мира / Isekai Meikyuu de Harem wo [S01] (2022) BDRemux 1080p от Anikun | L, L2 Magnet ссылка
Добавить комментарий

Оставить комментарий

Кликните на изображение чтобы обновить код, если он неразборчив
up
Copyright © 2022 RUTOR.EmpireG.RU. Все права защищены. Яндекс.Метрика