Новости трекера
Апр Новый Адрес: RUTOR.EMPIREG.RU
Ноя Вечная блокировка в России
Окт Путеводитель по RUTOR: Правила, Руководства, Секреты


Скачать Мой год членов / My Year of Dicks (2022) WEBRip 1080p | L2 торрентом бесплатно

Мой год членов / My Year of Dicks (2022) WEBRip 1080p | L2

0

⇒ Основная информация:
Информация о фильме
Название: Мой год членов
Оригинальное название: My Year of Dicks
Год выхода: 2022
Жанр: мультфильм, короткометражка, мелодрама, комедия
Режиссер: Сара Гуннарсдоттир
В ролях: Бри Тилтон, Джексон Келли, Кларисса Эрнандес, Крис Эльсенброк, Стерлинг Темпл Ховард, Майкал Трехо, Шон Стак, Дилан Дарвиш, Крис Келман, Лаура Хаус

О фильме:
Пэм, в отличии от своих подруг, еще девственница. Поэтому она решает исправить это недоразумение и ищет "того самого". И она не одна. В этом непростом деле ей помогают лучшие друзья.



Страна: США, Исландия
Студия: Cat's Pajamas, Wonder Killer
Продолжительность: 00:24:33
Перевод: Любительский двухголосый - (Yuka_chan & datynet)

Файл
Кодек: H.264
Качество: WEBRip 1080p | L2
Видео: 1918x1080 (2.40:1), 23.976 fps, MPEG4 Video (H264) High@L4 ~ 6 930 kbps avg
Звук: AC3, 192 Kb/s (2 ch)
Рекламы нет!
⇒ MediaInfo
General
Unique ID : 153432252998118911252501680943636588605 (0x736DFA1FD7D71E343A97D724ABDAA83D)
Complete name : D:My.Year.of.Dicks.(Short).2022.1080p.WEBRip.mkv
Format : Matroska
Format version : Version 4 / Version 2
File size : 1.22 GiB
Duration : 24 min 46 s
Overall bit rate : 7 064 kb/s
Encoded date : UTC 2023-02-19 15:46:52
Writing application : mkvmerge v50.0.0 ('Awakenings') 64-bit
Writing library : libebml v1.4.0 + libmatroska v1.6.2

Video
ID : 1
Format : AVC
Format/Info : Advanced Video Codec
Format profile : High@L4
Format settings : CABAC / 1 Ref Frames
Format settings, CABAC : Yes
Format settings, ReFrames : 1 frame
Format settings, GOP : M=1, N=30
Codec ID : V_MPEG4/ISO/AVC
Duration : 24 min 33 s
Bit rate : 6 930 kb/s
Width : 1 918 pixels
Height : 1 080 pixels
Display aspect ratio : 16:9
Frame rate mode : Constant
Frame rate : 30.000 FPS
Color space : YUV
Chroma subsampling : 4:2:0
Bit depth : 8 bits
Scan type : Progressive
Bits/(Pixel*Frame) : 0.112
Stream size : 1.19 GiB (97%)
Default : Yes
Forced : No
Color range : Limited
Color primaries : BT.709
Transfer characteristics : BT.709
Matrix coefficients : BT.709

Audio
ID : 2
Format : AC-3
Format/Info : Audio Coding 3
Codec ID : A_AC3
Duration : 24 min 46 s
Bit rate mode : Constant
Bit rate : 192 kb/s
Channel(s) : 2 channels
Channel positions : Front: L R
Sampling rate : 48.0 kHz
Frame rate : 31.250 FPS (1536 SPF)
Bit depth : 16 bits
Compression mode : Lossy
Stream size : 34.0 MiB (3%)
Service kind : Complete Main
Default : Yes
Forced : No


⇒ Скриншоты
Уважаемые пользователи!
Не забывайте оставаться на раздаче после того, как скачали торрент! Помогите скачать и другим - поддержите свободный обмен!

Если у вас НЕ получается скачать торрент файл, то используйте VPN или качайте через "Magnet ссылку"!

VPN вы можете приобрести в нашем интернет-магазине!
Размер: 1.22 GB (1312343871 Bytes)

Мой год членов / My Year of Dicks (2022) WEBRip 1080p | L2 Torrent файл

Мой год членов / My Year of Dicks (2022) WEBRip 1080p | L2 Magnet ссылка
Добавить комментарий

Оставить комментарий

Кликните на изображение чтобы обновить код, если он неразборчив
up
Copyright © 2022 RUTOR.EmpireG.RU. Все права защищены. Яндекс.Метрика