rutor.info :: Свободный торрент трекер » Аниме » Паприка / Paprika / Papurika (2006) BDRip 720p | P
  • Не нравится
  • 0
  • Нравится
Категория: Аниме | Добавил: TOLIAXA | Просмотров: 0 | Комментариев: 0

Паприка / Paprika / Papurika (2006) BDRip 720p | P


Уважаемые пользователи!
Не забывайте оставаться на раздаче после того, как скачали торрент! Помогите скачать и другим - поддержите свободный обмен!

Если у вас НЕ получается скачать торрент файл, то используйте VPN или качайте через "Magnet ссылку"!

VPN вы можете приобрести в нашем интернет-магазине!
Размер: 3.28 GB (3516891789 Bytes)

Паприка / Paprika / Papurika (2006) BDRip 720p | P Torrent файл
Паприка / Paprika / Papurika (2006) BDRip 720p | P Magnet ссылка

Паприка / Paprika / Papurika (2006) BDRip 720p | P
⇒ Основная информация:
Информация о фильме
Название: Паприка
Оригинальное название: Papurika
Год выхода: 2006
Жанр: мультфильм, фантастика, детектив
Режиссер: Сатоси Кон
В ролях: Мэгуми Хаясибара, Тору Фуруя, Коиши Ямадера, Кацуносукэ Хори, Тору Эмори, Акио Ютсука, Хидеуки Танака, Сатоми Короги, Дайсуке Сакагути, Мицуо Ивата

О фильме: Действие происходит вокруг DC Mini — устройства, позволяющее терапевтам проникать в сны пациентов, а также записывать «содержимое» на пленку. Три таких устройства были украдены, что дает их владельцу возможность не только проникать в фантазии людей, но также проникать в сознание и открывать им путь в собственные фантазии. Задача героев состоит в возвращении устройств, в выполнении которой на помощь приходит загадочная девушка — Паприка.




Выпущено: Япония, Sony Pictures Entertainment
Продолжительность: 01:30:32
Перевод: Профессиональный (многоголосый, закадровый)

MediaInfo:

Общее
Уникальный идентификатор : 244131857550998356834042773276550200976 (0xB7AA15E2416750C891BCE24CC2EF7E90)
Полное имя : F:Новая папкаPaprika.2006.x264.BDRip.(720p)-HDCLUB.mkv
Формат : Matroska
Версия формата : Version 2
Размер файла : 3,28 Гбайт
Продолжительность : 1 ч. 30 м.
Общий поток : 5179 Кбит/сек
Название фильма : Papurika (2006) - Release for HDCLUB by Skazhutin
Дата кодирования : UTC 2012-02-16 07:41:03
Программа кодирования : mkvmerge v5.2.1 ('A Far Off Place') built on Jan 2 2012 23:21:10
Библиотека кодирования : libebml v1.2.3 + libmatroska v1.3.0
Обложка : Yes
Attachments : cover.jpg / xlog.txt

Видео
Идентификатор : 1
Формат : AVC
Формат/Информация : Advanced Video Codec
Профиль формата : High@L4.1
Параметр CABAC формата : Да
Параметр ReFrames формата : 8 кадров
Идентификатор кодека : V_MPEG4/ISO/AVC
Продолжительность : 1 ч. 30 м.
Битрейт : 3183 Кбит/сек
Ширина : 1280 пикселей
Высота : 690 пикселей
Соотношение сторон : 1,85:1
Режим частоты кадров : Постоянный
Частота кадров : 23,976 (24000/1001) кадра/сек
Цветовое пространство : YUV
Субдискретизация насыщенности : 4:2:0
Битовая глубина : 8 бит
Тип развёртки : Прогрессивная
Бит/(Пиксели*Кадры) : 0.150
Размер потока : 2,01 Гбайт (61%)
Заголовок : Release for HDCLUB
Библиотека кодирования : x264 core 120 r2164 da19765
Настройки программы : cabac=1 / ref=8 / deblock=1:-1:-1 / analyse=0x3:0x113 / me=umh / subme=11 / psy=1 / psy_rd=0.80:0.00 / mixed_ref=1 / me_range=48 / chroma_me=1 / trellis=2 / 8x8dct=1 / cqm=0 / deadzone=21,11 / fast_pskip=1 / chroma_qp_offset=-2 / threads=12 / sliced_threads=0 / nr=0 / decimate=1 / interlaced=0 / bluray_compat=0 / constrained_intra=0 / bframes=9 / b_pyramid=2 / b_adapt=2 / b_bias=0 / direct=1 / weightb=1 / open_gop=0 / weightp=2 / keyint=250 / keyint_min=23 / scenecut=40 / intra_refresh=0 / rc_lookahead=40 / rc=crf / mbtree=0 / crf=15.0 / qcomp=0.70 / qpmin=0 / qpmax=69 / qpstep=4 / vbv_maxrate=50000 / vbv_bufsize=62500 / crf_max=0.0 / nal_hrd=none / ip_ratio=1.40 / pb_ratio=1.30 / aq=2:0.70
Язык : Japanese
Default : Да
Forced : Нет
Цветовой диапазон : Limited
Коэффициенты матрицы : BT.709

Аудио #1
Идентификатор : 2
Формат : AC-3
Формат/Информация : Audio Coding 3
Расширение режима : CM (complete main)
Параметр Endianness формата : Big
Идентификатор кодека : A_AC3
Продолжительность : 1 ч. 30 м.
Вид битрейта : Постоянный
Битрейт : 384 Кбит/сек
Каналы : 6 каналов
Расположение каналов : Front: L C R, Side: L R, LFE
Частота : 48,0 КГц
Частота кадров : 31,250 кадров/сек (1536 spf)
Метод сжатия : С потерями
Размер потока : 249 Мбайт (7%)
Заголовок : AC3 5.1 @ 384 kbps - Многоголосный, R5
Язык : Russian
Default : Да
Forced : Нет

Аудио #2
Идентификатор : 3
Формат : DTS
Формат/Информация : Digital Theater Systems
Режим : 16
Параметр Endianness формата : Big
Идентификатор кодека : A_DTS
Продолжительность : 1 ч. 30 м.
Вид битрейта : Постоянный
Битрейт : 1509 Кбит/сек
Каналы : 6 каналов
Расположение каналов : Front: L C R, Side: L R, LFE
Частота : 48,0 КГц
Частота кадров : 93,750 кадра/сек (512 spf)
Битовая глубина : 24 бит
Метод сжатия : С потерями
Размер потока : 977 Мбайт (29%)
Заголовок : DTS 5.1 @ 1536 kbps
Язык : Japanese
Default : Нет
Forced : Нет

Текст #1
Идентификатор : 4
Формат : UTF-8
Идентификатор кодека : S_TEXT/UTF8
Идентификатор кодека/Информация : UTF-8 Plain Text
Язык : Russian
Default : Нет
Forced : Нет

Текст #2
Идентификатор : 5
Формат : UTF-8
Идентификатор кодека : S_TEXT/UTF8
Идентификатор кодека/Информация : UTF-8 Plain Text
Язык : Ukrainian
Default : Нет
Forced : Нет

Текст #3
Идентификатор : 6
Формат : UTF-8
Идентификатор кодека : S_TEXT/UTF8
Идентификатор кодека/Информация : UTF-8 Plain Text
Язык : English
Default : Нет
Forced : Нет

Текст #4
Идентификатор : 7
Формат : UTF-8
Идентификатор кодека : S_TEXT/UTF8
Идентификатор кодека/Информация : UTF-8 Plain Text
Заголовок : SDH
Язык : English
Default : Нет
Forced : Нет

Меню
00:00:00.000 : en:Chapter 1
00:06:03.363 : en:Chapter 2
00:07:55.975 : en:Chapter 3
00:10:14.113 : en:Chapter 4
00:13:03.783 : en:Chapter 5
00:20:13.712 : en:Chapter 6
00:24:24.463 : en:Chapter 7
00:28:04.182 : en:Chapter 8
00:30:46.344 : en:Chapter 9
00:36:06.164 : en:Chapter 10
00:38:58.336 : en:Chapter 11
00:42:01.018 : en:Chapter 12
00:46:11.769 : en:Chapter 13
00:49:35.973 : en:Chapter 14
00:52:40.157 : en:Chapter 15
00:56:37.894 : en:Chapter 16
00:58:56.533 : en:Chapter 17
01:02:40.256 : en:Chapter 18
01:08:10.086 : en:Chapter 19
01:11:06.262 : en:Chapter 20
01:12:44.860 : en:Chapter 21
01:19:25.761 : en:Chapter 22
01:22:34.449 : en:Chapter 23
01:24:34.069 : en:Chapter 24





Файл
Качество: BDRip (720p)
Видео: MPEG-4 AVC, 3283 Кбит/с, 1280x690
Аудио: Русский (AC3, 6 ch, 384 Кбит/с), японский (DTS, 6 ch, 1510 Кбит/с)
Субтитры: Русские, украинские, английские (2 вида)

Скриншоты




Уважаемые пользователи!
Не забывайте оставаться на раздаче после того, как скачали торрент! Помогите скачать и другим - поддержите свободный обмен!

Если у вас НЕ получается скачать торрент файл, то используйте VPN или качайте через "Magnet ссылку"!

VPN вы можете приобрести в нашем интернет-магазине!
Размер: 3.28 GB (3516891789 Bytes)

Паприка / Paprika / Papurika (2006) BDRip 720p | P Torrent файл
Паприка / Paprika / Papurika (2006) BDRip 720p | P Magnet ссылка
  • Не нравится
  • 0
  • Нравится
Категория: Аниме | Добавил: TOLIAXA | Просмотров: 0 | Комментариев: 0
Уважаемый посетитель, Вы зашли на сайт как незарегистрированный пользователь.
Мы рекомендуем Вам зарегистрироваться либо войти на сайт под своим именем.
Имя:*
E-Mail:
Введите код: *
Кликните на изображение чтобы обновить код, если он неразборчив
Панель пользователя