rutor.info :: Свободный торрент трекер » Аниме » Фокусница-старшеклассница / Tejina-senpai [S01] (2019) BDRip от Deadmauvlad | P | Crunchyroll
  • Не нравится
  • 0
  • Нравится
Категория: Аниме | Добавил: TOLIAXA | Просмотров: 10 | Комментариев: 0

Фокусница-старшеклассница / Tejina-senpai [S01] (2019) BDRip от Deadmauvlad | P | Crunchyroll


Уважаемые пользователи!
Не забывайте оставаться на раздаче после того, как скачали торрент! Помогите скачать и другим - поддержите свободный обмен!

Если у вас НЕ получается скачать торрент файл, то используйте VPN или качайте через "Magnet ссылку"!

VPN вы можете приобрести в нашем интернет-магазине!
Размер: 1.62 GB (1737922977 Bytes)

Фокусница-старшеклассница / Tejina-senpai [S01] (2019) BDRip от Deadmauvlad  | P | Crunchyroll Torrent файл
Фокусница-старшеклассница / Tejina-senpai [S01] (2019) BDRip от Deadmauvlad  | P | Crunchyroll Magnet ссылка

Фокусница-старшеклассница / Tejina-senpai [S01] (2019) BDRip от Deadmauvlad  | P | Crunchyroll
⇒ Основная информация:

Информация о фильме
Название: Фокусница-старшеклассница
Оригинальное название: Tejina-senpai
Год выхода: 2019
Жанр: комедия, школа, сейнен, этти
Режиссер: Фумиаки Усуи
В ролях: Химика Аканэя, Каэдэ Хондо, Аои Итикава, Эри Китамура, Даисукэ Намикава, Риэ Такахаси

О фильме:
Главный герой истории — безымянный первокурсник старшей школы, не проявляющий никакого желания вступать в какой бы то ни было клуб. Но учителя не отступают, и парень всё же сдаётся. Во время неохотных поисков идеального клуба он натыкается на симпатичную старшеклассницу, которая практикует фокусы в клубной комнате. Это Сэмпай — начинающая иллюзионистка и фокусница. Но стать известной ей мешает страх перед публикой — даже при одном зрителе девушка теряется, и у неё всё валится из рук. Парень решает вступить в клуб, после чего становится личным ассистентом Сэмпая. Так начинается его весёлая жизнь в клубе магии!




Страна: Япония
Студия: Liden Films
Продолжительность: 12х~00:12:00
Перевод: Профессиональный (Закадровый, многоголосый)(Crunchyroll)
Перевод: Русские субтитры + Оригинал

Файл
Кодек: XviD
Качество: BDRip [исходник [TTGA] Magical Sempai (Season 1) BDRemux 1080p]
Видео: XviD, 720x400 (16:9), 23.976 fps, 1 145 kb/s (0.166 bit/pixel)
Аудио №1: AC-3, 44,1 КГц, 2 ch, 192 Кбит/сек, CBR | | Crunchyroll
Аудио №2: AC-3, 48,0 КГц, 2 ch, 192 Кбит/сек, CBR | | Оригинал

Субтитры: Русские (Полные / Надписи)

Список Серий

1. Незнакомая страшеклассница / Фокусница в коробке / Фокусница зовёт / Фокусница и голубь
2. Фокусница сгибает ложки / Непостижимая фокусница / Фокусница перекладывает ответственность / Девушка, которая не справляется с магией/ Фокусница вдруг серьёзна
3. Фокусница говорит нет / Фокусница быстро действует / Фокусница-завоеватель / Фокусница в кимоно / Фокусница вне школы
4. Фокусница празднует / Фокусница разведывает / Голубь, голубь и фокусница / Фокусница завершает дело / Кружок магии фокусницы
5. Наблюдатель и фокусница / Фокусница с луком / Фокусница химичит / Неожиданная фокусница / Приглашение фокусницы
6. Незнающая фокусница / Горячая фокусница / Замышляющая фокусница / Подозрительная фокусница
7. Изобретательная фокусница / Фокусница собирает деньги / Фокусница в бассейне / Фокусница переводится
8. Фокусница-китаянка / Фокусница-менталист / Фокусница-микан / Фокусница в интернете / Фокусница с доставкой
9. Фокусница предвзята / Пробный экзамен фокусницы / Мороженое фокусницы / Фокусница в купальнике
10. Фокусница на пляже / Фокусница и краб / Фокусница и арбуз / Фейерверки и фокусница
11 Four Balls Sempai / Ventriloquism Sempai / Tailing Sempai
12 Growing Sempai / Unfailing Sempai / Competitive Sempai / Silent Sempai / Bunny Sempai


MediaInfo
Общее
Полное имя : [Deadmau- RAWS] Tejina.Senpai.S01.RUS.JAP.BDRip.Deadmauvlad.Ep.01.avi
Формат : AVI
Формат/Информация : Audio Video Interleave
Размер файла : 138 Мбайт
Продолжительность : 12 м. 30 с.
Общий поток : 1543 Кбит/сек
Название фильма : [Deadmau- RAWS] Tejina.Senpai.S01.RUS.JAP.BDRip.Deadmauvlad.Ep.01
Режиссёр : Encoder by Deadmauvlad
Жанр : комедия, школа, сейнен, этти
Программа кодирования : VirtualDubMod 1.5.10.3 | www.virtualdub-fr.org || (build 2550/release)
Формат оригинала/Имя : Аниме
Авторское право : Encoder by Deadmauvlad
Примечание : Encoder by Deadmauvlad

Видео
Идентификатор : 0
Формат : MPEG-4 Visual
Профиль формата : Advanced Simple@L5
Настройки формата : BVOP1 / Custom Matrix
Параметр BVOP формата : 1
Параметр QPel формата : Нет
Параметр GMC формата : Без точки перехода
Параметр матрицы формата : Выборочная
Идентификатор кодека : XVID
Идентификатор кодека/Подсказка : XviD
Продолжительность : 12 м. 30 с.
Битрейт : 1145 Кбит/сек
Ширина : 720 пикселей
Высота : 400 пикселей
Соотношение сторон : 16:9
Частота кадров : 23,976 (24000/1001) кадра/сек
Цветовое пространство : YUV
Субдискретизация насыщенности : 4:2:0
Битовая глубина : 8 бит
Тип развёртки : Прогрессивная
Метод сжатия : С потерями
Бит/(Пиксели*Кадры) : 0.166
Размер потока : 102 Мбайт (74%)
Библиотека кодирования : XviD 73

Аудио #1
Идентификатор : 1
Формат : AC-3
Формат/Информация : Audio Coding 3
Коммерческое название : Dolby Digital
Идентификатор кодека : 2000
Продолжительность : 12 м. 30 с.
Вид битрейта : Постоянный
Битрейт : 192 Кбит/сек
Каналы : 2 канала
ChannelLayout : L R
Частота : 44,1 КГц
Частота кадров : 28,711 кадров/сек (1536 SPF)
Метод сжатия : С потерями
Размер потока : 17,2 Мбайт (12%)
Выравнивание : Разделение по промежуткам
Продолжительность промежутка : 42 мс. (1,00 видеокадр)
Время предзагрузки промежутка : 500 мс.

Аудио #2
Идентификатор : 2
Формат : AC-3
Формат/Информация : Audio Coding 3
Коммерческое название : Dolby Digital
Идентификатор кодека : 2000
Продолжительность : 12 м. 30 с.
Вид битрейта : Постоянный
Битрейт : 192 Кбит/сек
Каналы : 2 канала
ChannelLayout : L R
Частота : 48,0 КГц
Частота кадров : 31,250 кадров/сек (1536 SPF)
Метод сжатия : С потерями
Размер потока : 17,2 Мбайт (12%)
Выравнивание : Разделение по промежуткам
Продолжительность промежутка : 42 мс. (1,00 видеокадр)
Время предзагрузки промежутка : 500 мс.


Скриншоты



Релиз / Автор рипа: Deadmauvlad ^_^

Уважаемые пользователи!
Не забывайте оставаться на раздаче после того, как скачали торрент! Помогите скачать и другим - поддержите свободный обмен!

Если у вас НЕ получается скачать торрент файл, то используйте VPN или качайте через "Magnet ссылку"!

VPN вы можете приобрести в нашем интернет-магазине!
Размер: 1.62 GB (1737922977 Bytes)

Фокусница-старшеклассница / Tejina-senpai [S01] (2019) BDRip от Deadmauvlad  | P | Crunchyroll Torrent файл
Фокусница-старшеклассница / Tejina-senpai [S01] (2019) BDRip от Deadmauvlad  | P | Crunchyroll Magnet ссылка
  • Не нравится
  • 0
  • Нравится
Категория: Аниме | Добавил: TOLIAXA | Просмотров: 10 | Комментариев: 0
Уважаемый посетитель, Вы зашли на сайт как незарегистрированный пользователь.
Мы рекомендуем Вам зарегистрироваться либо войти на сайт под своим именем.
Имя:*
E-Mail:
Введите код: *
Кликните на изображение чтобы обновить код, если он неразборчив
Панель пользователя