rutor.info :: Свободный торрент трекер » Аниме » Киберпанк: Бегущие по краю / Cyberpunk: Edgerunners [S01] (2022) WEB-DL 1080p | LostFilm
  • Не нравится
  • 0
  • Нравится
Категория: Аниме | Добавил: TOLIAXA | Просмотров: 146 | Комментариев: 0

Киберпанк: Бегущие по краю / Cyberpunk: Edgerunners [S01] (2022) WEB-DL 1080p | LostFilm


Уважаемые пользователи!
Не забывайте оставаться на раздаче после того, как скачали торрент! Помогите скачать и другим - поддержите свободный обмен!

Если у вас НЕ получается скачать торрент файл, то используйте VPN или качайте через "Magnet ссылку"!

VPN вы можете приобрести в нашем интернет-магазине!
Размер: 8.20 GB (8802029428 Bytes)

Киберпанк: Бегущие по краю / Cyberpunk: Edgerunners [S01] (2022) WEB-DL 1080p | LostFilm Torrent файл
Киберпанк: Бегущие по краю / Cyberpunk: Edgerunners [S01] (2022) WEB-DL 1080p | LostFilm Magnet ссылка

Киберпанк: Бегущие по краю / Cyberpunk: Edgerunners [S01] (2022) WEB-DL 1080p | LostFilm
⇒ Основная информация:
Информация о фильме
Название: Киберпанк: Бегущие по краю
Оригинальное название: Cyberpunk: Edgerunners
Год выхода: 2022
Жанр: аниме, мультфильм, фантастика, боевик
Режиссер: Хироюки Имаиси
В ролях: Кэнъитиро Охаси, Аои Юки, Кэндзиро Цуда, Кадзухико Иноуэ, Ватару Такаги, Хироки Тоти, Томоё Куросава, Такако Хонда, Митико Кайдэн, Юрика Хино

О фильме: «Киберпанк: Бегущие по краю» — аниме-сериал, разработанный японской анимационной студией Trigger для платформы Netflix. Сериал основан на популярной видеоигре Cyberpunk 2077, вышедшей в 2020 году. Десятисерийное шоу получило мгновенное признание критиков и аудитории, оценивших невероятно динамичную анимацию, дизайн персонажей и, конечно, сюжет, разворачивающийся в антиутопическом мире с высокоразвитыми технологиями.

В мире будущего люди одержимы модификациями тела, дарующими им небывалую силу и способности, которые выходят за грань обычных человеческих возможностей. Но за них, как и за все в этом мире, нужно платить. Школьник Дэвид Мартинес едва может позволить себе лицензионное обновление своих модификаций, а его мать надрывается на работе, чтобы при этом оплатить обучение сына в элитной школе, где, впрочем, выходца из небогатой семьи не очень-то жалуют. В скором времени Мартинесу представится возможность так проапгрейдить свое тело, что его заносчивым одноклассникам и не снилось, — и, конечно, такое модифицирование требует куда более опасных и захватывающих возможностей для использования, чем просиживание штанов на уроках и драки со школьными недругами.



Страна: Япония
Студия: CD Projekt RED, Trigger
Продолжительность: ~00:25:00 серия
Перевод: Профессиональный (многоголосый, закадровый) LostFilm

Файл
Качество: WEB-DL 1080p | Cyberpunk.Edgerunners.S01.JAPANESE.1080p.NF.WEBRip.DDP5.1.x264-SMURF
Формат: Matroska
Видео: 1920x1080 at 23.976 fps, MPEG4-AVC, ~2555 kbps avg
Аудио#1: Russian: 48 kHz, AC3, 2/0 (L,R) ch, ~384 kbps avg |Многоголосый закадровый, LostFilm|
Аудио#2: Japanese: 48 kHz, E-AC3, 3/2 (L,C,R,l,r) + LFE ch, ~640 kbps avg
Аудио#3: English: 48 kHz, E-AC3, 3/2 (L,C,R,l,r) + LFE ch, ~640 kbps avg
Субтитры: Russian (Full |Netflix, lost6fox|), English (Forced, Full, SDH)

***Примечание: Без рекламы
***Внимание! В субтитрах от lost6fox присутствует ненормативная лексика!

Список серий
01. Let You Down / Подвел тебя
02. Like A Boy / Как мальчишка
03. Smooth Criminal / Ловкач
04. Lucky You / Везунчик
05. All Eyez On Me / В центре внимания
06. Girl on Fire / Яркое пламя
07. Stronger / Сильнее
08. Stay / Останься
09. Humanity / Человечество
10. My Moon My Man / Мой лунный мальчик
Скриншоты

MediaInfo
Общее
Уникальный идентификатор : 77796083208052728494227560520161257999 (0x3A86FB09F4575DC57E980E106F156A0F)
Полное имя : Cyberpunk.Edgerunners.S01E05.All.Eyez.On.Me.mkv
Формат : Matroska
Версия формата : Version 4
Размер файла : 767 Мбайт
Продолжительность : 24 м. 52 с.
Режим общего битрейта : Переменный
Общий поток : 4 312 Кбит/сек
Дата кодирования : UTC 2022-10-01 18:10:06
Программа кодирования : mkvmerge v51.0.0 ('I Wish') 64-bit
Библиотека кодирования : libebml v1.4.0 + libmatroska v1.6.2

Видео
Идентификатор : 1
Формат : AVC
Формат/Информация : Advanced Video Codec
Профиль формата : Main@L4
Настройки формата : CABAC / 3 Ref Frames
Параметр CABAC формата : Да
Параметр RefFrames формата : 3 кадра
Идентификатор кодека : V_MPEG4/ISO/AVC
Продолжительность : 24 м. 51 с.
Вид битрейта : Переменный
Битрейт : 2 645 Кбит/сек
Номинальный битрейт : 3 694 Кбит/сек
Максимальный битрейт : 7 665 Кбит/сек
Ширина : 1 920 пикселей
Высота : 1 080 пикселей
Соотношение сторон : 16:9
Режим частоты кадров : Постоянный
Частота кадров : 23,976 (24000/1001) кадра/сек
Цветовое пространство : YUV
Субдискретизация насыщенности : 4:2:0
Битовая глубина : 8 бит
Тип развёртки : Прогрессивная
Бит/(Пиксели*Кадры) : 0.053
Размер потока : 470 Мбайт (61%)
Библиотека кодирования : x264 core 148 r2727 7d026e8
Настройки программы : cabac=1 / ref=3 / deblock=1:0:0 / analyse=0x1:0x111 / me=umh / subme=10 / psy=1 / psy_rd=1.00:0.00 / mixed_ref=1 / me_range=24 / chroma_me=1 / trellis=2 / 8x8dct=0 / cqm=0 / deadzone=21,11 / fast_pskip=1 / chroma_qp_offset=-2 / threads=8 / lookahead_threads=1 / sliced_threads=0 / nr=0 / decimate=1 / interlaced=0 / bluray_compat=0 / stitchable=1 / constrained_intra=0 / bframes=2 / b_pyramid=0 / b_adapt=2 / b_bias=0 / direct=3 / weightb=1 / open_gop=0 / weightp=2 / keyint=250 / keyint_min=23 / scenecut=0 / intra_refresh=0 / rc_lookahead=48 / rc=2pass / mbtree=1 / bitrate=3694 / ratetol=1.0 / qcomp=0.50 / qpmin=6 / qpmax=51 / qpstep=4 / cplxblur=20.0 / qblur=0.5 / vbv_maxrate=7665 / vbv_bufsize=10220 / nal_hrd=vbr / filler=0 / ip_ratio=1.40 / aq=1:1.00
Язык : Japanese
Default : Да
Forced : Нет

Аудио #1
Идентификатор : 2
Формат : AC-3
Формат/Информация : Audio Coding 3
Коммерческое название : Dolby Digital
Идентификатор кодека : A_AC3
Продолжительность : 24 м. 51 с.
Вид битрейта : Постоянный
Битрейт : 384 Кбит/сек
Каналы : 2 канала
Channel layout : L R
Частота : 48,0 КГц
Частота кадров : 31,250 кадров/сек (1536 SPF)
Метод сжатия : С потерями
Размер потока : 68,3 Мбайт (9%)
Язык : Russian
Service kind : Complete Main
Default : Да
Forced : Нет

Аудио #2
Идентификатор : 3
Формат : E-AC-3
Формат/Информация : Enhanced AC-3
Коммерческое название : Dolby Digital Plus
Идентификатор кодека : A_EAC3
Продолжительность : 24 м. 52 с.
Вид битрейта : Постоянный
Битрейт : 640 Кбит/сек
Каналы : 6 каналов
Channel layout : L R C LFE Ls Rs
Частота : 48,0 КГц
Частота кадров : 31,250 кадров/сек (1536 SPF)
Метод сжатия : С потерями
Размер потока : 114 Мбайт (15%)
Язык : Japanese
Service kind : Complete Main
Default : Нет
Forced : Нет

Аудио #3
Идентификатор : 4
Формат : E-AC-3
Формат/Информация : Enhanced AC-3
Коммерческое название : Dolby Digital Plus
Идентификатор кодека : A_EAC3
Продолжительность : 24 м. 52 с.
Вид битрейта : Постоянный
Битрейт : 640 Кбит/сек
Каналы : 6 каналов
Channel layout : L R C LFE Ls Rs
Частота : 48,0 КГц
Частота кадров : 31,250 кадров/сек (1536 SPF)
Метод сжатия : С потерями
Размер потока : 114 Мбайт (15%)
Язык : English
Service kind : Complete Main
Default : Нет
Forced : Нет

Текст #1
Идентификатор : 5
Формат : UTF-8
Идентификатор кодека : S_TEXT/UTF8
Идентификатор кодека/Информация : UTF-8 Plain Text
Продолжительность : 23 м. 19 с.
Битрейт : 86 бит/сек
Count of elements : 315
Размер потока : 14,8 Кбайт (0%)
Заголовок : Full |Netflix|
Язык : Russian
Default : Нет
Forced : Нет

Текст #2
Идентификатор : 6
Формат : UTF-8
Идентификатор кодека : S_TEXT/UTF8
Идентификатор кодека/Информация : UTF-8 Plain Text
Продолжительность : 21 м. 18 с.
Битрейт : 100 бит/сек
Count of elements : 311
Размер потока : 15,6 Кбайт (0%)
Заголовок : Full |lost6fox|
Язык : Russian
Default : Нет
Forced : Нет

Текст #3
Идентификатор : 7
Формат : UTF-8
Идентификатор кодека : S_TEXT/UTF8
Идентификатор кодека/Информация : UTF-8 Plain Text
Продолжительность : 19 м. 39 с.
Битрейт : 74 бит/сек
Count of elements : 348
Размер потока : 10,7 Кбайт (0%)
Заголовок : Full
Язык : English
Default : Нет
Forced : Нет

Текст #4
Идентификатор : 8
Формат : UTF-8
Идентификатор кодека : S_TEXT/UTF8
Идентификатор кодека/Информация : UTF-8 Plain Text
Продолжительность : 23 м. 15 с.
Битрейт : 90 бит/сек
Count of elements : 476
Размер потока : 15,5 Кбайт (0%)
Заголовок : SDH
Язык : English
Default : Нет
Forced : Нет

Меню
00:00:05.025 : en:Opening Credits
00:01:39.141 : en:Chapter 01
00:21:54.000 : en:End Credits
Раздача ведется путем добавления новых серий
Когда раздача ведётся путём добавления новых серий, при каждом добавлении создётся новый торрент. Чтобы начать докачку новой серии, пользователям необходимо сделать следующее:
(1) остановить скачивание,
(2) удалить старый торрент у себя из клиента (старые серии удалять не надо),
(3) скачать новый торрент и запустить его у себя в клиенте вместо старого, при этом указать клиенту путь в старую папку, куда и должно происходить скачивание новых серий.
Ваш клиент при этом должен произвести хеширование (проверку) старой папки (если не производит сам - помогите ему сделать это), и будет докачивать только те серии, которых у вас ещё нет. Старые серии при этом не удаляются, а продолжают раздаваться!
Eсли вы уже удалили старые серии, то предотвратить повторную закачку старых серий можно, отжав галочку в соответствующих местах при запуске нового торрента. По возможности, желательно не удалять старые серии как можно дольше, чтобы релизер не столько продолжал раздавать старые серии, а смог сконцентрироваться на новых.
Уважаемые пользователи!
Не забывайте оставаться на раздаче после того, как скачали торрент! Помогите скачать и другим - поддержите свободный обмен!

Если у вас НЕ получается скачать торрент файл, то используйте VPN или качайте через "Magnet ссылку"!

VPN вы можете приобрести в нашем интернет-магазине!
Размер: 8.20 GB (8802029428 Bytes)

Киберпанк: Бегущие по краю / Cyberpunk: Edgerunners [S01] (2022) WEB-DL 1080p | LostFilm Torrent файл
Киберпанк: Бегущие по краю / Cyberpunk: Edgerunners [S01] (2022) WEB-DL 1080p | LostFilm Magnet ссылка
  • Не нравится
  • 0
  • Нравится
Категория: Аниме | Добавил: TOLIAXA | Просмотров: 146 | Комментариев: 0
Уважаемый посетитель, Вы зашли на сайт как незарегистрированный пользователь.
Мы рекомендуем Вам зарегистрироваться либо войти на сайт под своим именем.
Имя:*
E-Mail:
Введите код: *
Кликните на изображение чтобы обновить код, если он неразборчив
Панель пользователя