rutor.info :: Свободный торрент трекер » Аниме » Птичье крыло: история гольфисток / Birdie Wing: Golf Girls' Story [S01] (2022) WEBRip 1080p by VLDeshka | L | ShikokuStudio, Anidub
  • Не нравится
  • 0
  • Нравится
Категория: Аниме | Добавил: TOLIAXA | Просмотров: 21 | Комментариев: 0

Птичье крыло: история гольфисток / Birdie Wing: Golf Girls' Story [S01] (2022) WEBRip 1080p by VLDeshka | L | ShikokuStudio, Anidub


Уважаемые пользователи!
Не забывайте оставаться на раздаче после того, как скачали торрент! Помогите скачать и другим - поддержите свободный обмен!

Если у вас НЕ получается скачать торрент файл, то используйте VPN или качайте через "Magnet ссылку"!

VPN вы можете приобрести в нашем интернет-магазине!
Размер: 7.07 GB (7588059500 Bytes)

Птичье крыло: история гольфисток / Birdie Wing: Golf Girls' Story [S01] (2022) WEBRip 1080p by VLDeshka | L | ShikokuStudio, Anidub Torrent файл
Птичье крыло: история гольфисток / Birdie Wing: Golf Girls' Story [S01] (2022) WEBRip 1080p by VLDeshka | L | ShikokuStudio, Anidub Magnet ссылка

Птичье крыло: история гольфисток / Birdie Wing: Golf Girls' Story [S01] (2022) WEBRip 1080p by VLDeshka | L | ShikokuStudio, Anidub
⇒ Основная информация:
Информация о фильме
Название: Птичье крыло: история гольфисток
Оригинальное название: Birdie Wing: Golf Girls' Story
Год выхода: 2022
Жанр: спорт, повседневность
Режиссер: Такаюки Инагаки

О фильме:
Гольф - игра, которая не подойдет каждому человеку. Чтобы стать лучшим спортсменов этом виде спорта, необходимо действительно любить его отдаваться ему без остатка. Необходимо уделять много времени тренировкам. Только в этом случае появится возможность не только участвовать в турнирах, а быть их победителем. Ева и Аой любят гольф. Но их подходы и мировоззрение различаются, и порой очень сильно. У них разные стили и понимание игры. Девушки являются полной противоположностью друг друга. Но это им не мешает вместе совершенствоваться и идти к намеченной цели. Девушкам предстоит пройти много испытаний, узнать вкус поражения, а затем почувствовать, как приближается другой турнир, где можно будет себя проявить.


Страна: Япония
Продолжительность: ~ 00:24:00
Перевод: Любительский (многоголосый, закадровый) | Anidub

Файл
Формат: MKV
Кодек: MPEG-4 AVC
Качество: WEBRip 1080p
Видео: 1920x1080, ~ 2 700 kb/s, 23.976 FPS. 8 bits
Аудио (русский): AAC LC, ~ 192 kb/s, 2 channels, 48.0 kHz | ShikokuStudio [Lilla, Izzy Mey, Lonely Dragon, Shinjiro-san]
Аудио (русский): AAC LC, ~ 192 kb/s, 2 channels, 48.0 kHz | Anidub [Odissey, Lilla, yoro, Барашек Додо]
Аудио (японский): AAC LC, ~ 128 kb/s, 2 channels, 44.1 kHz | Оригинал
Субтитры: Русские (полные, на надписи, отключаемые)


Релиз от: VLDeshka


Скриншоты





MediaInfo

Общее
Уникальный идентификатор : 108840468482754225980795982883776509535 (0x51E1E967DF2B24AFEB4ED33AA23A365F)
Полное имя : D:torBirdie.Wing.Golf.Girls.Story.[S1].WEBRip.1080p.by.VLDeshkaBirdie Wing - Golf Girls' Story - 01.mkv
Формат : Matroska
Версия формата : Version 4
Размер файла : 524 Мбайт
Продолжительность : 23 м. 50 с.
Общий поток : 3 073 Кбит/сек
Дата кодирования : UTC 2022-05-07 11:30:30
Программа кодирования : mkvmerge v64.0.0 ('Willows') 64-bit
Библиотека кодирования : libebml v1.4.2 + libmatroska v1.6.4
Attachments : trebuc.ttf / arial.ttf / times.ttf / tahoma.ttf

Видео
Идентификатор : 1
Формат : AVC
Формат/Информация : Advanced Video Codec
Профиль формата : High@L4
Настройки формата : CABAC / 4 Ref Frames
Параметр CABAC формата : Да
Параметр RefFrames формата : 4 кадра
Идентификатор кодека : V_MPEG4/ISO/AVC
Продолжительность : 23 м. 50 с.
Битрейт : 2 700 Кбит/сек
Ширина : 1 920 пикселей
Высота : 1 080 пикселей
Соотношение сторон : 16:9
Режим частоты кадров : Постоянный
Частота кадров : 23,976 (24000/1001) кадра/сек
Цветовое пространство : YUV
Субдискретизация насыщенности : 4:2:0
Битовая глубина : 8 бит
Тип развёртки : Прогрессивная
Бит/(Пиксели*Кадры) : 0.054
Размер потока : 467 Мбайт (89%)
Библиотека кодирования : x264 core 133 r2334 a3ac64b
Настройки программы : cabac=1 / ref=1 / deblock=1:0:0 / analyse=0x3:0x3 / me=dia / subme=1 / psy=1 / psy_rd=1.00:0.00 / mixed_ref=0 / me_range=16 / chroma_me=1 / trellis=0 / 8x8dct=1 / cqm=0 / deadzone=21,11 / fast_pskip=1 / chroma_qp_offset=0 / threads=12 / lookahead_threads=2 / sliced_threads=0 / nr=0 / decimate=1 / interlaced=0 / bluray_compat=0 / constrained_intra=0 / bframes=3 / b_pyramid=2 / b_adapt=1 / b_bias=0 / direct=1 / weightb=1 / open_gop=0 / weightp=1 / keyint=250 / keyint_min=23 / scenecut=40 / intra_refresh=0 / rc=abr / mbtree=0 / bitrate=2700 / ratetol=1.0 / qcomp=0.60 / qpmin=0 / qpmax=69 / qpstep=4 / ip_ratio=1.40 / pb_ratio=1.30 / aq=1:1.00
Язык : English
Default : Да
Forced : Нет

Аудио #1
Идентификатор : 2
Формат : AAC LC
Формат/Информация : Advanced Audio Codec Low Complexity
Идентификатор кодека : A_AAC-2
Продолжительность : 23 м. 50 с.
Битрейт : 192 Кбит/сек
Каналы : 2 канала
Channel layout : L R
Частота : 48,0 КГц
Частота кадров : 46,875 кадров/сек (1024 SPF)
Метод сжатия : С потерями
Размер потока : 32,3 Мбайт (6%)
Заголовок : Anidub
Язык : Russian
Default : Да
Forced : Нет

Аудио #2
Идентификатор : 3
Формат : AAC LC
Формат/Информация : Advanced Audio Codec Low Complexity
Идентификатор кодека : A_AAC-2
Продолжительность : 23 м. 50 с.
Битрейт : 128 Кбит/сек
Каналы : 2 канала
Channel layout : L R
Частота : 44,1 КГц
Частота кадров : 43,066 кадра/сек (1024 SPF)
Метод сжатия : С потерями
Размер потока : 21,8 Мбайт (4%)
Язык : Japanese
Default : Нет
Forced : Нет

Текст #1
Идентификатор : 4
Формат : ASS
Идентификатор кодека : S_TEXT/ASS
Идентификатор кодека/Информация : Advanced Sub Station Alpha
Продолжительность : 19 м. 57 с.
Битрейт : 6 бит/сек
Count of elements : 9
Метод сжатия : Без потерь
Размер потока : 1 015 байт (0%)
Заголовок : Надписи
Язык : Russian
Default : Да
Forced : Нет

Текст #2
Идентификатор : 5
Формат : ASS
Идентификатор кодека : S_TEXT/ASS
Идентификатор кодека/Информация : Advanced Sub Station Alpha
Продолжительность : 23 м. 47 с.
Битрейт : 257 бит/сек
Count of elements : 417
Метод сжатия : Без потерь
Размер потока : 44,9 Кбайт (0%)
Заголовок : Полные
Язык : Russian
Default : Нет
Forced : Нет






17.10.2022 обновлено. Добавлена озвучка от ShikokuStudio. PS Lilla озвучивала для Anidub и Shikoku параллельно, так что, возможно, второй сезон здесь будет только Shikoku или только AniDub, а может и все вместе. Приятного просмотра.
Уважаемые пользователи!
Не забывайте оставаться на раздаче после того, как скачали торрент! Помогите скачать и другим - поддержите свободный обмен!

Если у вас НЕ получается скачать торрент файл, то используйте VPN или качайте через "Magnet ссылку"!

VPN вы можете приобрести в нашем интернет-магазине!
Размер: 7.07 GB (7588059500 Bytes)

Птичье крыло: история гольфисток / Birdie Wing: Golf Girls' Story [S01] (2022) WEBRip 1080p by VLDeshka | L | ShikokuStudio, Anidub Torrent файл
Птичье крыло: история гольфисток / Birdie Wing: Golf Girls' Story [S01] (2022) WEBRip 1080p by VLDeshka | L | ShikokuStudio, Anidub Magnet ссылка
  • Не нравится
  • 0
  • Нравится
Категория: Аниме | Добавил: TOLIAXA | Просмотров: 21 | Комментариев: 0
Уважаемый посетитель, Вы зашли на сайт как незарегистрированный пользователь.
Мы рекомендуем Вам зарегистрироваться либо войти на сайт под своим именем.
Имя:*
E-Mail:
Введите код: *
Кликните на изображение чтобы обновить код, если он неразборчив
Панель пользователя