rutor.info :: Свободный торрент трекер » Аниме » Она видела небо / Sora no aosa o shiru hito yo / Her Blue Sky (2019) BDRip 720p | Лицензия
  • Не нравится
  • 0
  • Нравится
Категория: Аниме | Добавил: TOLIAXA | Просмотров: 2 | Комментариев: 0

Она видела небо / Sora no aosa o shiru hito yo / Her Blue Sky (2019) BDRip 720p | Лицензия


Уважаемые пользователи!
Не забывайте оставаться на раздаче после того, как скачали торрент! Помогите скачать и другим - поддержите свободный обмен!

Если у вас НЕ получается скачать торрент файл, то используйте VPN или качайте через "Magnet ссылку"!

VPN вы можете приобрести в нашем интернет-магазине!
Размер: 3.83 GB (4111357330 Bytes)

Она видела небо / Sora no aosa o shiru hito yo / Her Blue Sky (2019) BDRip 720p | Лицензия Torrent файл
Она видела небо / Sora no aosa o shiru hito yo / Her Blue Sky (2019) BDRip 720p | Лицензия Magnet ссылка

Она видела небо / Sora no aosa o shiru hito yo / Her Blue Sky (2019) BDRip 720p | Лицензия
⇒ Основная информация:
Информация о фильме
Название: Она видела небо
Оригинальное название: Sora no aosa o shiru hito yo / Her Blue Sky
Год выхода: 2019
Жанр: Аниме, мультфильм, мелодрама, фэнтези, музыка
Страна: Япония
Перевод: Дублированный | Лицензия BD RUS
Продолжительность: 01:47:28
Режиссеры: Тацуюки Нагаи, Миюки Куроки
В ролях: Рихо Ёсиока, Сион Вакаяма, Рё Ёсидзава, Ё Таити, Фукуси Отиаи, Кэн Мацудаира, Ацуми Танэдзаки, Акинори Эгоси, Тикахиро Кобаяси, Хироки Маэда и др.

О фильме: Родители Аои и Аканэ погибли 13 лет назад, и, чтобы заботиться о младшей сестре, Аканэ пришлось отказаться от планов переехать в Токио вместе со своим парнем Синносукэ. С тех пор Аои чувствует себя в долгу перед сестрой. Однажды известный исполнитель песен в жанре энка по имени Данкити приглашает Аои, только делающую первые шаги на музыкальном поприще, выступить на фестивале. В то же время Синносукэ после долгого отсутствия возвращается в родной город. Одновременно загадочным образом появляется Синно, который является Синносукэ тринадцатилетней давности, прибывшим из прошлого в настоящее. И Аои впервые влюбляется.



Файл
Качество: BDRip 720p
Видео: x264, 1280x720, ~4015 kbps, 24,000 fps
Звук#1: русский, AC3, 5.1 ch, 48 kHz, 640 kbps | Лицензия
Звук#2: японский, AC3, 5.1 ch, 48 kHz, 448 kbps | оригинал
Субтитры: русские (полные)

MI
Общее
Уникальный идентификатор : 197499236729617925423457252834671536084 (0x9494F82AABF8C71AFA6989C17E7F27D4)
Полное имя : E:TorrentOnaVidelaNeboBDRip720p.mkv
Формат : Matroska
Версия формата : Version 4
Размер файла : 3,83 Гбайт
Продолжительность : 1 ч. 47 м.
Общий поток : 5 101 Кбит/сек
Дата кодирования : UTC 2023-01-14 09:10:54
Программа кодирования : mkvmerge v64.0.0 ('Willows') 64-bit
Библиотека кодирования : libebml v1.4.2 + libmatroska v1.6.4

Видео
Идентификатор : 1
Формат : AVC
Формат/Информация : Advanced Video Codec
Профиль формата : High@L4.1
Настройки формата : CABAC / 8 Ref Frames
Параметр CABAC формата : Да
Параметр RefFrames формата : 8 кадров
Идентификатор кодека : V_MPEG4/ISO/AVC
Продолжительность : 1 ч. 47 м.
Битрейт : 4 015 Кбит/сек
Ширина : 1 280 пикселей
Высота : 720 пикселей
Соотношение сторон : 16:9
Режим частоты кадров : Постоянный
Частота кадров : 24,000 кадра/сек
Цветовое пространство : YUV
Субдискретизация насыщенности : 4:2:0
Битовая глубина : 8 бит
Тип развёртки : Прогрессивная
Бит/(Пиксели*Кадры) : 0.182
Размер потока : 3,01 Гбайт (79%)
Заголовок : Sisendrovich(R)
Библиотека кодирования : x264 core 164 r3101 b093bbe
Настройки программы : cabac=1 / ref=8 / deblock=1:-1:-1 / analyse=0x3:0x133 / me=tesa / subme=11 / psy=1 / psy_rd=1.00:0.00 / mixed_ref=1 / me_range=32 / chroma_me=1 / trellis=2 / 8x8dct=1 / cqm=0 / deadzone=21,11 / fast_pskip=0 / chroma_qp_offset=-2 / threads=24 / lookahead_threads=5 / sliced_threads=0 / nr=0 / decimate=0 / interlaced=0 / bluray_compat=0 / constrained_intra=0 / bframes=12 / b_pyramid=2 / b_adapt=2 / b_bias=0 / direct=3 / weightb=1 / open_gop=0 / weightp=2 / keyint=240 / keyint_min=23 / scenecut=40 / intra_refresh=0 / rc_lookahead=60 / rc=2pass / mbtree=0 / bitrate=4015 / ratetol=1.0 / qcomp=0.70 / qpmin=0 / qpmax=69 / qpstep=4 / cplxblur=20.0 / qblur=0.5 / vbv_maxrate=50000 / vbv_bufsize=62500 / nal_hrd=none / filler=0 / ip_ratio=1.40 / pb_ratio=1.30 / aq=3:0.80
Язык : Japanese
Default : Да
Forced : Нет
Цветовой диапазон : Limited
Основные цвета : BT.709
Характеристики трансфера : BT.709
Коэффициенты матрицы : BT.709

Аудио #1
Идентификатор : 2
Формат : AC-3
Формат/Информация : Audio Coding 3
Коммерческое название : Dolby Digital
Идентификатор кодека : A_AC3
Продолжительность : 1 ч. 47 м.
Вид битрейта : Постоянный
Битрейт : 640 Кбит/сек
Каналы : 6 каналов
Channel layout : L R C LFE Ls Rs
Частота : 48,0 КГц
Частота кадров : 31,250 кадров/сек (1536 SPF)
Метод сжатия : С потерями
Размер потока : 490 Мбайт (13%)
Заголовок : rus
Язык : Russian
Default : Да
Forced : Нет

Аудио #2
Идентификатор : 3
Формат : AC-3
Формат/Информация : Audio Coding 3
Коммерческое название : Dolby Digital
Идентификатор кодека : A_AC3
Продолжительность : 1 ч. 47 м.
Вид битрейта : Постоянный
Битрейт : 448 Кбит/сек
Каналы : 6 каналов
Channel layout : L R C LFE Ls Rs
Частота : 48,0 КГц
Частота кадров : 31,250 кадров/сек (1536 SPF)
Метод сжатия : С потерями
Размер потока : 343 Мбайт (9%)
Заголовок : Jap
Язык : Japanese
Default : Нет
Forced : Нет

Текст
Идентификатор : 4
Формат : UTF-8
Идентификатор кодека : S_TEXT/UTF8
Идентификатор кодека/Информация : UTF-8 Plain Text
Продолжительность : 1 ч. 40 м.
Битрейт : 96 бит/сек
Count of elements : 1795
Размер потока : 70,8 Кбайт (0%)
Заголовок : rusFull
Язык : Russian
Default : Нет
Forced : Нет

Меню
00:00:00.000 : :Chapter 01
00:00:42.000 : :Chapter 02
00:07:25.166 : :Chapter 03
00:15:36.291 : :Chapter 04
00:20:58.750 : :Chapter 05
00:31:11.500 : :Chapter 06
00:37:15.916 : :Chapter 07
00:42:59.625 : :Chapter 08
00:47:01.083 : :Chapter 09
00:52:45.166 : :Chapter 10
01:00:11.708 : :Chapter 11
01:10:29.291 : :Chapter 12
01:17:35.375 : :Chapter 13
01:22:06.166 : :Chapter 14
01:34:20.625 : :Chapter 15
01:38:16.958 : :Chapter 16
01:42:12.750 : :Chapter 17
01:47:07.000 : :Chapter 18
Скриншоты


Рип и релиз от:
Уважаемые пользователи!
Не забывайте оставаться на раздаче после того, как скачали торрент! Помогите скачать и другим - поддержите свободный обмен!

Если у вас НЕ получается скачать торрент файл, то используйте VPN или качайте через "Magnet ссылку"!

VPN вы можете приобрести в нашем интернет-магазине!
Размер: 3.83 GB (4111357330 Bytes)

Она видела небо / Sora no aosa o shiru hito yo / Her Blue Sky (2019) BDRip 720p | Лицензия Torrent файл
Она видела небо / Sora no aosa o shiru hito yo / Her Blue Sky (2019) BDRip 720p | Лицензия Magnet ссылка
  • Не нравится
  • 0
  • Нравится
Категория: Аниме | Добавил: TOLIAXA | Просмотров: 2 | Комментариев: 0
Уважаемый посетитель, Вы зашли на сайт как незарегистрированный пользователь.
Мы рекомендуем Вам зарегистрироваться либо войти на сайт под своим именем.
Имя:*
E-Mail:
Введите код: *
Кликните на изображение чтобы обновить код, если он неразборчив
Панель пользователя